圣城家园 - BT下载 720P 1080P高清电影下载|字幕组|中英字幕|电视剧|美剧|迅雷下载|高清电影|日剧|韩剧|动漫|游戏|最新电影大片下载

发布新帖
乐于分享,把你的资源分享给全世界!
查看: 45784|回复: 4803

[合集] [黑夜传说三部曲]2003-2009.BluRay.720p.x264.AC3-CnSCG[中英字幕/8.11G]

    [复制链接]

该用户从未签到

发表于 2011-1-30 18:06:59 | 显示全部楼层 |阅读模式
没事洗版这种事本人一般很少干,只不过此系列之前质量实在太差,貌似还字幕不同步,后来随便给个字幕包敷衍。一样下了个原盘,又无片可压,低码版就重做了,还把3部的人名、种族名等等翻译统一了
黑夜传说.jpg

【英文片名】:Underworld (2003/I)
【中文片名】:黑夜传说/妖夜寻狼/地下世界/决战异世界
【发行公司】:Screen Gems(索尼公司旗下)
【上映日期】:2003年9月19日
【影片类型】:爱情 / 动作 / 奇幻 / 惊悚 / 恐怖
【片  长】:121 min / USA:133 min (director's cut)
【国家地区】:美国 德国 匈牙利 英国
【对白语言】:英语
【色  彩】:彩色
【混  音】:DTS-HD.51
【Imdb评分】:6.6/10 (36,139 votes)
【Imdb链接】:http://us.imdb.com/title/tt0320691/
【官方网站】:www.sonypictures.com/movies/underworld/
【导  演】:伦·维斯曼 Len Wiseman
【编  剧】:伦·维斯曼 Len Wiseman .....(story) &
       Kevin Grevioux .....(story) and
       Danny McBride .....(story)/(screenplay)
       Danny McBride .....(screenplay)
【演  员】:比尔·奈伊 Bill Nighy .....Viktor
       凯特·贝金赛尔 Kate Beckinsale .....Selene
       斯科特·斯比德曼 Scott Speedman .....Michael Corvin
       麦克·辛 Michael Sheen .....Lucian
       索非亚·迈尔斯 Sophia Myles .....Erika
       文特沃斯·米勒 Wentworth Miller .....Dr. Adam Lockwood
       Erwin Leder .....Singe
       Robbie Gee .....Kahn (as Robby Gee)
       Kevin Grevioux .....Raze
       Zita G?r?g .....Amelia
【分  级】:新加坡-PG 阿根廷-13 德国-16 冰岛-162 挪威-15 英国-15 美国-R 加拿大-R
       澳大利亚-MA 法国-12 芬兰-K-15 菲律宾-R-18 马来西亚-18SG 墨西哥-B15 荷兰-1
【制作成本】:$22,000,000/estimated
【版权所有】:(? 2003 Subterranean Productions LLC)
【拍摄日期】:2002年9月2日 - 2002年11月23日

【剧情简介】: 

  在人类之外,有一个黑暗而未知的地下世界,那里活跃着两个敌对种族:具有贵族气质、神秘难以捉摸的吸血鬼,和生性凶残野蛮的狼人,为了获得地下世界的生存统治权,他们争斗了几个世纪。对于人类来说,他们不过是街头巷尾的鬼怪传说,但实际上,双方的激烈对峙从未停息,他们终其一生不断交手,誓有一方倒下不能罢休。

  在几个世纪的争夺中,吸血鬼部落获得了地下世界的特权,他们比较强大和正规,居住在一栋戒备森严但有些破旧的公寓里,但狼人族的存在还是威胁到他们的尊贵地位,他们暗地里成立了一个由精英吸血鬼战士组成的“死亡发牌者”,开始了大规模的铲除狼人行动。

  狼人部落则是一伙游荡街头巷尾的恶徒,他们的栖息地是二战后遗留下来的一个地下仓库,他们虽然个个凶猛强悍,却缺乏组织和规模,使得在与吸血鬼的战斗中处于劣势。吸血鬼和狼人部落,各自都拥有属于自己的兵工厂,生产大批量的杀人武器,他们无时无刻不在暗夜中寻找机会干掉对方,眼看着两股黑暗势力剑拔弩张,大战一触即发……

  一个雷雨交加的秋日深夜,吸血鬼女战士“月之女神”西丽妮(凯特·贝金赛尔饰)正在追杀狼人,无意间从一名俘虏的口中得知,狼人族准备绑架人类医生迈克尔(斯科特·斯皮德曼饰)。西丽妮察觉到狼人族正在密图一个巨大的阴谋,她决定独自查探,不想反被狼人重伤,幸运的是她被迈克尔救了出来。

  西丽妮带着迈克尔进入了吸血鬼的领地,不料迈克尔被一只吸血鬼咬伤,这时迈克尔的神秘身份才被揭开,原来迈克尔身上有一半狼人的血统,另一半则属于吸血鬼。这使得他陷入了无处容身的艰难处境,但恰恰是这种混合血统,使迈克尔具有了一种神秘力量。他的狼人族同胞知道这个秘密后,疯狂的追逐他,想饮食他的血液以获得强大的力量。西里妮很同情迈克尔的遭遇,想要帮助这位英俊的救命恩人,神奇的爱情在他们身上萌发了。

  但是,他们身后的两个世仇家族,却没有因为两个年轻人的爱,而消弭几个世纪的冤仇。吸血鬼歼灭狼人的行动已经筹备完成,狼人也为自己的复仇行动作好了充分的准备,于是,在一个夜色更加黑暗、风雨更加狂暴的晚上,吸血鬼和狼人族的大决战开始了……

  〖内幕〗

  情节看起来很熟悉是吧?那就对了,这部《黑夜传说》一直被称为是对莎翁最著名的故事《罗密欧与朱丽叶》的最新诠释,只不过在片子里注入了大量现代元素以及厚重的奇幻传说色彩,而在电脑后期技术的处理加工后,影片中的鬼魅出没的地下世界弥漫着哥特式的诡谲阴郁,狼人族的血腥,吸血鬼族的幽暗都让人印象深刻,但片中意图沿袭发扬的,仍是莎翁笔下那段旷世绝爱的凄美和惨烈。

  〖角色〗

  本片最大的亮点也是最大的卖点,无疑是女主角凯特·贝金赛尔,扮演一名吸血鬼女战士,这个角色不管是相对《珍珠港》中柔情似水的**,还是《缘分天注定》中娇俏可人的准新娘,都绝对是个突破性的改变。

  男主演人选斯科特·斯比德曼的名气相对就小了很多,他参演过《二重唱》(格温妮丝·帕特洛主演)及反映警界**内幕的《深蓝》等片。

【幕后制作】:

  吸血鬼和狼人题材一直是西方恐怖电影的两项最爱,本片将这两个题材合二为一,为观众描绘一个充满神秘和暴力的地下世界。片中运用不少特技镜头,再配上震撼视觉的化妆效果,令影片充满神奇恐怖的气氛。



D:\bbs.cnscg.com 黑夜传说1.mkv
   Video #1
      ID : 1
      Format : AVC
      Format/Info : Advanced Video Codec
      Format profile : [email protected]
      Format settings, CABAC : Yes
      Format settings, ReFrames : 4 frames
      Muxing mode : Container [email protected]
      Codec ID : V_MPEG4/ISO/AVC
      Duration : 2h 13mn
      Bit rate : 24.0 Kbps
      Nominal bit rate : 2 785 Kbps
      Width : 1 280 pixels
      Height : 720 pixels
      Display aspect ratio : 16:9
      Frame rate : 23.976 fps
      Resolution : 8 bits
      Colorimetry : 4:2:0
      Scan type : Progressive
      Bits/(Pixel*Frame) : 0.001
      Stream size : 22.9 MiB (4%)
      Writing library : x264 core 112 r1867 22bfd31
      Encoding settings : cabac=1 / ref=5 / deblock=1:-3:-3 / analyse=0x3:0x113 / me=umh / subme=9 / psy=1 / psy_rd=1.00:0.10 / mixed_ref=1 / me_range=32 / chroma_me=1 / trellis=2 / 8x8dct=1 / cqm=0 / deadzone=21,11 / fast_pskip=0 / chroma_qp_offset=-2 / threads=6 / sliced_threads=0 / nr=0 / decimate=0 / interlaced=0 / constrained_intra=0 / bframes=3 / b_pyramid=1 / b_adapt=2 / b_bias=0 / direct=1 / weightb=1 / open_gop=0 / weightp=2 / keyint=250 / keyint_min=23 / scenecut=40 / intra_refresh=0 / rc_lookahead=40 / rc=2pass / mbtree=1 / bitrate=2785 / ratetol=1.0 / qcomp=0.60 / qpmin=10 / qpmax=51 / qpstep=4 / cplxblur=20.0 / qblur=0.5 / ip_ratio=1.40 / aq=1:1.00
      Language : English
   Audio #2
      ID : 2
      Format : AC-3
      Format/Info : Audio Coding 3
      Codec ID : A_AC3
      Duration : 2h 13mn
      Bit rate mode : Constant
      Bit rate : 640 Kbps
      Channel(s) : 6 channels
      Channel positions : Front: L C R, Surround: L R, LFE
      Sampling rate : 48.0 KHz
      Stream size : 612 MiB (94%)
   Text #3
      ID : 3
      Format : SSA
      Codec ID : S_TEXT/SSA
      Codec ID/Info : Sub Station Alpha
      Title : 上中下英
   Text #4
      ID : 4
      Format : SSA
      Codec ID : S_TEXT/SSA
      Codec ID/Info : Sub Station Alpha
      Title : 上英下中
   Text #5
      ID : 5
      Format : UTF-8
      Codec ID : S_TEXT/UTF8
      Codec ID/Info : UTF-8 Plain Text
      Title : 中文
   Text #6
      ID : 6
      Format : UTF-8
      Codec ID : S_TEXT/UTF8
      Codec ID/Info : UTF-8 Plain Text
      Title : 英文

黑2.jpg

【原 片 名】Underworld Evolution
【中 文 名】黑夜传说2:进化/决战异世界2:进化时代
【出品公司】哥伦比亚三星 Columbia Tristar
【出品年代】2006 年
【首映日期】2006年1月20日
【MPAA级别】R
【官方网站】http://www.lakeshore-records.com/underworld_evolution/index.html
【IMDB链接】http://www.imdb.com/title/tt0401855/
【IMDB评分】6.6/10 (30,154 votes)
【国  家】美国/德国/匈牙利/英国
【类  别】动作/幻想/恐怖/惊悚
【影片长度】106 Mins
【对白语言】英语
【字  幕】含中文字幕
【导  演】朗·怀斯曼 Len Wiseman
【主  演】凯特·贝金塞尔 Kate Beckinsale .... Selene
      斯科特·斯比德曼 Scott Speedman .... Michael Corvin
      Tony Curran .... Marcus Corvinus
      Shane Brolly .... Kraven
      Derek Jacobi .... Alexander Corvinus (as Sir Derek Jacobi)
      Bill Nighy .... Viktor
      Steven Mackintosh .... Andreas Tanis
      Zita G?r?g .... Amelia
      Brian Steele .... William Corvinus
      Scott McElroy .... Soren
      John Mann .... Samuel
      Michael Sheen .... Lucian
      Sophia Myles .... Erika
      Richard Cetrone .... Pierce (as Rich Cetrone)
      Mike Mukatis .... Taylor

【内容简介】

  《黑夜传说2:进化》延续了上一部中高贵神秘的“死亡营造者”吸血鬼族与凶悍残暴的狼人族之间的争斗,并由此展开。冷艳的女吸血鬼赛琳娜(凯特·贝金塞尔饰)与狼人和吸血鬼的混种迈克尔(斯科特·斯比德曼饰)自从相爱之后,便试图解开两个部落的血统之谜,化解数世纪堆积纠缠的新仇旧恨。不过事情远不如他们所想那么简单,更加黑暗的真相与阴谋在他们的探索中被一层层揭开……

  本片是一部快节奏的、含有大量窒息打斗动作的现代化传奇。残酷的阴谋和不被允许的相爱令两人不得不卷入进这场最后的战争,将几个世纪以来的争斗画上休止符,就如那些不朽的生灵也终将面对他们的惩罚和审判……

幕后花絮:

  本片是2003年票房大热的小成本动作片《黑夜传说》的续集,当时的投资仅为2300万美元,但却创下了周末三天2200万、全球票房过亿的好成绩,片商自然要大力催谷,立刻开拍续集。而且,第三部《黑夜传说前传》也在筹备过程中,并马上投入拍摄,剧本仍由伦·维斯曼(Len Wiseman)和丹尼·麦克布莱德(Danny McBride)编写。《黑夜传说》是伦·维斯曼在好莱坞第一次执导的大成本影片。出身于幕后工作人员的他不但会写剧本,也曾在1994年《星际奇兵》、 1996年《独立日》等片担任道具助理。

  影片故事脱胎于莎翁经典悲剧爱情《罗密欧与朱丽叶》,特技效果则能明显看出《骇客帝国》的影子,尽管评论界对该片评价不高,却受到观众的热烈欢迎。在本片中,家族恩怨演化为部族仇杀、人类世界中的罗密欧与朱丽叶化身为地下世界的迈克尔和赛琳娜,作为莎翁名着《罗密欧与朱丽叶》的最新诠释版,《黑夜传说》融入了厚重的奇幻色彩和大量的现代元素,但古老的爱情主题依旧惨烈凄美。

  此外,本片还撮合了导演伦·维斯曼和女主角凯特·贝金塞尔美好姻缘,见证了二人由相识、相恋到迈入结婚殿堂的过程。两人于2003年6月订婚,并在 2004年5月9日在洛杉矶完婚。据凯特·贝金塞尔的发言人说,婚礼规模并不大,邀请的宾客人数也不多,但气氛相当亲切、温馨。而这位女星与前任男友迈克 ·辛所生的五岁女儿莉莉,在婚礼上担任小花僮。

主演介绍:

凯特·贝金塞尔(Kate Beckinsale):

  影片女主角凯特·贝金塞尔拥有姣美的面容和高雅的气质,她曾被Hello!杂志评为“25位最美丽的女人”中的第一,被誉为“集古典美和现代美于一身”的气质女星。2001年夏天,全球瞩目的电影《珍珠港》中的女主角便是她的闪光之作。贝金塞尔1973年7月出生于英国伦敦,父母都是着名电视演员。贝金塞尔16岁就开始步入影坛,20岁时在英国影片《无事生非》中出演角色。贝金塞尔曾就读于着名的牛津大学,主修法国文学与俄罗斯文学,但是为了自己的演艺事业而在大三那年中止了学业。自那时起,她的演艺事业一帆风顺,成为一颗冉冉升起的新星。早期作品有《无事生非》(Much Ado About Nothing)和《迪斯科的末日》(The Last Days ofDisco),还有与克莱尔·丹斯主演的《倒塌的宫殿》(Brokendown Palace)。由于2001年《珍珠港》的轰动,从英国漂洋过海到好莱坞寻求发展的“气质女星”凯特·贝金塞尔一夜之间变成家誉户晓的明星,幸运的转变就像好莱坞版的“现代灰姑娘”。 继《珍珠港》之后,她还相继推出了爱情喜剧片《美国情缘》、动作片《黑夜传说》和《范海辛》等卖座影片。

  凯特·贝金塞尔曾与英国演员男友迈克·辛维持了长达7年多的爱情长跑。1999年1月她为迈克·辛产下一女,取名为莉莉·辛。但两人于2003年3月宣告分手,凯特·贝金塞尔独自带着女儿住在伦敦。之后,她因拍摄《黑夜传说》认识了现在的丈夫导演伦·维斯曼,并迅速相恋订婚,并于2004年结为正式夫妻。

斯科特·斯比德曼(Scott Speedman):

  不同于大多数黄金城的新人,好莱坞起初并非斯彼德曼的首选单位。这个28岁的多伦多人从小就被家人培育为优秀运动员,还曾作为加拿大青年国家游泳队的一员参加了1992年的奥运会训练,然而颈部受伤却使得他提前离开了训练队。"我到了一所专门培养运动员和艺术家的学校,& quot;他回忆道,"因此当我受伤的时候,我开始转行学习艺术。直到十六、七岁的时候,我才开始接触像吉恩·哈克曼和达斯汀·霍夫曼这样的人物,对电影产生了浓厚的兴趣。"

  他的表演生涯始于一次冒险,斯彼德曼自制的一盘录影带为他赢得了1995年《蝙蝠侠3》的面试机会。此后他在美国电视剧《费莉西蒂》 (Felicity)中取得了演艺事业上的重大突破,并帮助他登陆了第一部大银幕角色--2000年与格温妮丝·帕特洛共同出演的卡拉OK喜剧《二重奏》,之后他又主演了反映警界腐败内幕的影片《深蓝》,直到2003年5月,他主演的《黑夜传说》获得巨大票房成功,才让人们记住了他这个相貌英俊、略带羞涩的大男孩。

影片看点:美艳吸血女战士

  当两年前的B级片《黑夜传说》悄悄登上银幕,没多少人觉得剑走“哥特”之风的吸血鬼与狼人之战有何经典可言,可大概这两个西方老牌恐怖阵营的魅力实在可观,加上吸取了《刀锋战士》、《骇客帝国》甚至《罗密欧与朱丽叶》三者口味,《黑夜传说》一跃成为当年大卖之作。

  小成本+大收入,好莱坞不可能不趁热打铁推出续集,三部曲的预定理所当然。除了延续阴暗大战路线,并将血腥、火爆的战争场面继续发扬光大,众多“黑夜迷”们最期待的还有英国第一美女凯特·贝金赛尔继续性感出场。从《珍珠港》里柔情似水的护士,到《缘分天注定》中娇俏可人的准新娘,染上黑暗气质的贝金赛尔却更加迷人。

  一身勾勒身材的黑色皮装、一脸苍白的楚楚可人,加上拼尽全力手持双枪战斗的火爆场面,美艳无比也酷劲十足。有如此大美女在黑暗世界中熠熠放光,配上鬼魅出没的地下世界、弥漫哥特式的诡谲阴郁,血腥的吸血鬼狼人大战以及新的幽暗危机,电影看来是要将传说中的终极大战进行到底了!

电影点评:好莱坞新式大拼盘

  美丽悲凄的罗密欧与朱丽叶、传统经典恐怖片中的怪物设置、套用刀锋战士的最初设定、美艳迷人的性感女主角,将这些全揉合在一起,将背景设置在人类之外的地下世界,配上高贵的吸血鬼和野蛮嗜血的狼人大战,用酷炫的电脑动作特技和先进武器加工,将本来就血腥的杀戮继续升级--这就是杂和各类影片元素的《黑夜传说2:进化》。

  好莱坞似乎永远有不知疲倦的挖掘精神,在创新方面已经有些黔驴技穷的它,越来越热衷起了拼拼凑凑的工作--将无数单个元素糅合在一起,炒炒冷饭,搞出看似新鲜的玩意,成了又一条捞钞票的新路子。传统的海盗片加入魔咒的《加勒比海盗》成了票房宠儿,《异形对铁血战士》、《弗莱迪大战杰森》之类的两种怪物大战之流倒也各有收获,《黑夜传说》第一集意外的高票房也很能说明问题。

  “炒饭”本身也是好玩意,至于这炒饭味道如何,是否让观众买账,就全看厨子手艺如何了。在导演、主演不变的前提下,号称依然原汁原味的《黑2》将动作投入升级,保持着异族爱情的绝美凄艳、吸血鬼和狼人的恐怖、杀戮战争的刺激以及耐以成名的哥特美感,不管能不能一鸣惊人,至少在视觉上应该能让人满意而归。



D:\bbs.cnscg.com 黑夜传说2:进化.mkv
   Video #1
      ID : 1
      Format : AVC
      Format/Info : Advanced Video Codec
      Format profile : [email protected]
      Format settings, CABAC : Yes
      Format settings, ReFrames : 4 frames
      Muxing mode : Container [email protected]
      Codec ID : V_MPEG4/ISO/AVC
      Duration : 1h 46mn
      Bit rate : 110 Kbps
      Nominal bit rate : 2 719 Kbps
      Width : 1 280 pixels
      Height : 720 pixels
      Display aspect ratio : 16:9
      Frame rate : 23.976 fps
      Resolution : 8 bits
      Colorimetry : 4:2:0
      Scan type : Progressive
      Bits/(Pixel*Frame) : 0.005
      Stream size : 83.6 MiB (14%)
      Writing library : x264 core 112 r1867 22bfd31
      Encoding settings : cabac=1 / ref=5 / deblock=1:-3:-3 / analyse=0x3:0x113 / me=umh / subme=9 / psy=1 / psy_rd=1.00:0.10 / mixed_ref=1 / me_range=32 / chroma_me=1 / trellis=2 / 8x8dct=1 / cqm=0 / deadzone=21,11 / fast_pskip=0 / chroma_qp_offset=-2 / threads=6 / sliced_threads=0 / nr=0 / decimate=0 / interlaced=0 / constrained_intra=0 / bframes=3 / b_pyramid=1 / b_adapt=2 / b_bias=0 / direct=1 / weightb=1 / open_gop=0 / weightp=2 / keyint=250 / keyint_min=23 / scenecut=40 / intra_refresh=0 / rc_lookahead=40 / rc=2pass / mbtree=1 / bitrate=2719 / ratetol=1.0 / qcomp=0.60 / qpmin=10 / qpmax=51 / qpstep=4 / cplxblur=20.0 / qblur=0.5 / ip_ratio=1.40 / aq=1:1.00
      Language : English
   Audio #2
      ID : 2
      Format : AC-3
      Format/Info : Audio Coding 3
      Codec ID : A_AC3
      Duration : 1h 46mn
      Bit rate mode : Constant
      Bit rate : 640 Kbps
      Channel(s) : 6 channels
      Channel positions : Front: L C R, Surround: L R, LFE
      Sampling rate : 48.0 KHz
      Stream size : 487 MiB (84%)
   Text #3
      ID : 3
      Format : SSA
      Codec ID : S_TEXT/SSA
      Codec ID/Info : Sub Station Alpha
      Title : 上中下英
   Text #4
      ID : 4
      Format : SSA
      Codec ID : S_TEXT/SSA
      Codec ID/Info : Sub Station Alpha
      Title : 上英下中
   Text #5
      ID : 5
      Format : UTF-8
      Codec ID : S_TEXT/UTF8
      Codec ID/Info : UTF-8 Plain Text
      Title : 中文
   Text #6
      ID : 6
      Format : UTF-8
      Codec ID : S_TEXT/UTF8
      Codec ID/Info : UTF-8 Plain Text
      Title : 英文




D:\黑夜传说3.mkv
   General
      Complete name : D:\黑夜传说3.mkv
      Format : Matroska
      File size : 2.40 GiB
      Duration : 1h 32mn
      Overall bit rate : 3 709 Kbps
      Encoded date : UTC 2011-01-28 09:13:16
      Writing application : mkvmerge v3.0.0 ('Hang up your Hang-Ups') 编译于 Dec 12 2009 15:20:35
      Writing library : libebml v0.7.9 + libmatroska v0.8.1
   Video #1
      ID : 1
      Format : AVC
      Format/Info : Advanced Video Codec
      Format profile : [email protected]
      Format settings, CABAC : Yes
      Format settings, ReFrames : 4 frames
      Muxing mode : Container [email protected]
      Codec ID : V_MPEG4/ISO/AVC
      Duration : 1h 32mn
      Bit rate : 2 995 Kbps
      Nominal bit rate : 3 071 Kbps
      Width : 1 280 pixels
      Height : 720 pixels
      Display aspect ratio : 16:9
      Frame rate : 23.976 fps
      Resolution : 8 bits
      Colorimetry : 4:2:0
      Scan type : Progressive
      Bits/(Pixel*Frame) : 0.136
      Stream size : 1.93 GiB (81%)
      Writing library : x264 core 112 r1867 22bfd31
      Encoding settings : cabac=1 / ref=5 / deblock=1:-3:-3 / analyse=0x3:0x113 / me=umh / subme=9 / psy=1 / psy_rd=1.00:0.10 / mixed_ref=1 / me_range=32 / chroma_me=1 / trellis=2 / 8x8dct=1 / cqm=0 / deadzone=21,11 / fast_pskip=0 / chroma_qp_offset=-2 / threads=6 / sliced_threads=0 / nr=0 / decimate=0 / interlaced=0 / constrained_intra=0 / bframes=3 / b_pyramid=1 / b_adapt=2 / b_bias=0 / direct=1 / weightb=1 / open_gop=0 / weightp=2 / keyint=250 / keyint_min=23 / scenecut=40 / intra_refresh=0 / rc_lookahead=40 / rc=2pass / mbtree=1 / bitrate=3071 / ratetol=1.0 / qcomp=0.60 / qpmin=10 / qpmax=51 / qpstep=4 / cplxblur=20.0 / qblur=0.5 / ip_ratio=1.40 / aq=1:1.00
      Language : English
   Audio #2
      ID : 2
      Format : AC-3
      Format/Info : Audio Coding 3
      Codec ID : A_AC3
      Duration : 1h 32mn
      Bit rate mode : Constant
      Bit rate : 640 Kbps
      Channel(s) : 6 channels
      Channel positions : Front: L C R, Surround: L R, LFE
      Sampling rate : 48.0 KHz
      Stream size : 423 MiB (17%)
   Text #3
      ID : 3
      Format : SSA
      Codec ID : S_TEXT/SSA
      Codec ID/Info : Sub Station Alpha
      Title : 上中下英
   Text #4
      ID : 4
      Format : SSA
      Codec ID : S_TEXT/SSA
      Codec ID/Info : Sub Station Alpha
      Title : 上英下中
   Text #5
      ID : 5
      Format : UTF-8
      Codec ID : S_TEXT/UTF8
      Codec ID/Info : UTF-8 Plain Text
      Title : 中文
   Text #6
      ID : 6
      Format : UTF-8
      Codec ID : S_TEXT/UTF8
      Codec ID/Info : UTF-8 Plain Text
      Title : 英文



游客,如果您要查看本帖隐藏内容请回复,如果您想无广告、免回复、免费下载附件请开通VIP:VIP传送门


评分

参与人数 1圣元 +8 收起 理由
yingfeng-li + 8 第一二部的视频部分大小都不到100M? 错了吧

查看全部评分

最新回复

该用户从未签到

 楼主| 发表于 2011-1-30 18:08:24 | 显示全部楼层
  1. [img]http://images3.blu-ray.com/movies/covers/4769_front.jpg[/img]

  2. [img]http://images3.blu-ray.com/movies/covers/498_front.jpg[/img]

  3. 【英文片名】:Underworld (2003/I)
  4. 【中文片名】:黑夜传说/妖夜寻狼/地下世界/决战异世界
  5. 【发行公司】:Screen Gems(索尼公司旗下)
  6. 【上映日期】:2003年9月19日
  7. 【影片类型】:爱情 / 动作 / 奇幻 / 惊悚 / 恐怖
  8. 【片  长】:121 min / USA:133 min (director's cut)
  9. 【国家地区】:美国 德国 匈牙利 英国
  10. 【对白语言】:英语
  11. 【色  彩】:彩色
  12. 【混  音】:DTS-HD.51
  13. 【Imdb评分】:6.6/10 (36,139 votes)
  14. 【Imdb链接】:http://us.imdb.com/title/tt0320691/
  15. 【官方网站】:www.sonypictures.com/movies/underworld/
  16. 【导  演】:伦·维斯曼 Len Wiseman
  17. 【编  剧】:伦·维斯曼 Len Wiseman .....(story) &
  18.        Kevin Grevioux .....(story) and
  19.        Danny McBride .....(story)/(screenplay)
  20.        Danny McBride .....(screenplay)
  21. 【演  员】:比尔·奈伊 Bill Nighy .....Viktor
  22.        凯特·贝金赛尔 Kate Beckinsale .....Selene
  23.        斯科特·斯比德曼 Scott Speedman .....Michael Corvin
  24.        麦克·辛 Michael Sheen .....Lucian
  25.        索非亚·迈尔斯 Sophia Myles .....Erika
  26.        文特沃斯·米勒 Wentworth Miller .....Dr. Adam Lockwood
  27.        Erwin Leder .....Singe
  28.        Robbie Gee .....Kahn (as Robby Gee)
  29.        Kevin Grevioux .....Raze
  30.        Zita G?r?g .....Amelia
  31. 【分  级】:新加坡-PG 阿根廷-13 德国-16 冰岛-162 挪威-15 英国-15 美国-R 加拿大-R
  32.        澳大利亚-MA 法国-12 芬兰-K-15 菲律宾-R-18 马来西亚-18SG 墨西哥-B15 荷兰-1
  33. 【制作成本】:$22,000,000/estimated
  34. 【版权所有】:(? 2003 Subterranean Productions LLC)
  35. 【拍摄日期】:2002年9月2日 - 2002年11月23日

  36. 【剧情简介】: 

  37.   在人类之外,有一个黑暗而未知的地下世界,那里活跃着两个敌对种族:具有贵族气质、神秘难以捉摸的吸血鬼,和生性凶残野蛮的狼人,为了获得地下世界的生存统治权,他们争斗了几个世纪。对于人类来说,他们不过是街头巷尾的鬼怪传说,但实际上,双方的激烈对峙从未停息,他们终其一生不断交手,誓有一方倒下不能罢休。

  38.   在几个世纪的争夺中,吸血鬼部落获得了地下世界的特权,他们比较强大和正规,居住在一栋戒备森严但有些破旧的公寓里,但狼人族的存在还是威胁到他们的尊贵地位,他们暗地里成立了一个由精英吸血鬼战士组成的“死亡发牌者”,开始了大规模的铲除狼人行动。

  39.   狼人部落则是一伙游荡街头巷尾的恶徒,他们的栖息地是二战后遗留下来的一个地下仓库,他们虽然个个凶猛强悍,却缺乏组织和规模,使得在与吸血鬼的战斗中处于劣势。吸血鬼和狼人部落,各自都拥有属于自己的兵工厂,生产大批量的杀人武器,他们无时无刻不在暗夜中寻找机会干掉对方,眼看着两股黑暗势力剑拔弩张,大战一触即发……

  40.   一个雷雨交加的秋日深夜,吸血鬼女战士“月之女神”西丽妮(凯特·贝金赛尔饰)正在追杀狼人,无意间从一名俘虏的口中得知,狼人族准备绑架人类医生迈克尔(斯科特·斯皮德曼饰)。西丽妮察觉到狼人族正在密图一个巨大的阴谋,她决定独自查探,不想反被狼人重伤,幸运的是她被迈克尔救了出来。

  41.   西丽妮带着迈克尔进入了吸血鬼的领地,不料迈克尔被一只吸血鬼咬伤,这时迈克尔的神秘身份才被揭开,原来迈克尔身上有一半狼人的血统,另一半则属于吸血鬼。这使得他陷入了无处容身的艰难处境,但恰恰是这种混合血统,使迈克尔具有了一种神秘力量。他的狼人族同胞知道这个秘密后,疯狂的追逐他,想饮食他的血液以获得强大的力量。西里妮很同情迈克尔的遭遇,想要帮助这位英俊的救命恩人,神奇的爱情在他们身上萌发了。

  42.   但是,他们身后的两个世仇家族,却没有因为两个年轻人的爱,而消弭几个世纪的冤仇。吸血鬼歼灭狼人的行动已经筹备完成,狼人也为自己的复仇行动作好了充分的准备,于是,在一个夜色更加黑暗、风雨更加狂暴的晚上,吸血鬼和狼人族的大决战开始了……

  43.   〖内幕〗

  44.   情节看起来很熟悉是吧?那就对了,这部《黑夜传说》一直被称为是对莎翁最著名的故事《罗密欧与朱丽叶》的最新诠释,只不过在片子里注入了大量现代元素以及厚重的奇幻传说色彩,而在电脑后期技术的处理加工后,影片中的鬼魅出没的地下世界弥漫着哥特式的诡谲阴郁,狼人族的血腥,吸血鬼族的幽暗都让人印象深刻,但片中意图沿袭发扬的,仍是莎翁笔下那段旷世绝爱的凄美和惨烈。

  45.   〖角色〗

  46.   本片最大的亮点也是最大的卖点,无疑是女主角凯特·贝金赛尔,扮演一名吸血鬼女战士,这个角色不管是相对《珍珠港》中柔情似水的**,还是《缘分天注定》中娇俏可人的准新娘,都绝对是个突破性的改变。

  47.   男主演人选斯科特·斯比德曼的名气相对就小了很多,他参演过《二重唱》(格温妮丝·帕特洛主演)及反映警界**内幕的《深蓝》等片。

  48. 【幕后制作】:

  49.   吸血鬼和狼人题材一直是西方恐怖电影的两项最爱,本片将这两个题材合二为一,为观众描绘一个充满神秘和暴力的地下世界。片中运用不少特技镜头,再配上震撼视觉的化妆效果,令影片充满神奇恐怖的气氛。



  50. D:\bbs.cnscg.com 黑夜传说1.mkv
  51.    Video #1
  52.       ID : 1
  53.       Format : AVC
  54.       Format/Info : Advanced Video Codec
  55.       Format profile : [email protected]
  56.       Format settings, CABAC : Yes
  57.       Format settings, ReFrames : 4 frames
  58.       Muxing mode : Container [email protected]
  59.       Codec ID : V_MPEG4/ISO/AVC
  60.       Duration : 2h 13mn
  61.       Bit rate : 24.0 Kbps
  62.       Nominal bit rate : 2 785 Kbps
  63.       Width : 1 280 pixels
  64.       Height : 720 pixels
  65.       Display aspect ratio : 16:9
  66.       Frame rate : 23.976 fps
  67.       Resolution : 8 bits
  68.       Colorimetry : 4:2:0
  69.       Scan type : Progressive
  70.       Bits/(Pixel*Frame) : 0.001
  71.       Stream size : 22.9 MiB (4%)
  72.       Writing library : x264 core 112 r1867 22bfd31
  73.       Encoding settings : cabac=1 / ref=5 / deblock=1:-3:-3 / analyse=0x3:0x113 / me=umh / subme=9 / psy=1 / psy_rd=1.00:0.10 / mixed_ref=1 / me_range=32 / chroma_me=1 / trellis=2 / 8x8dct=1 / cqm=0 / deadzone=21,11 / fast_pskip=0 / chroma_qp_offset=-2 / threads=6 / sliced_threads=0 / nr=0 / decimate=0 / interlaced=0 / constrained_intra=0 / bframes=3 / b_pyramid=1 / b_adapt=2 / b_bias=0 / direct=1 / weightb=1 / open_gop=0 / weightp=2 / keyint=250 / keyint_min=23 / scenecut=40 / intra_refresh=0 / rc_lookahead=40 / rc=2pass / mbtree=1 / bitrate=2785 / ratetol=1.0 / qcomp=0.60 / qpmin=10 / qpmax=51 / qpstep=4 / cplxblur=20.0 / qblur=0.5 / ip_ratio=1.40 / aq=1:1.00
  74.       Language : English
  75.    Audio #2
  76.       ID : 2
  77.       Format : AC-3
  78.       Format/Info : Audio Coding 3
  79.       Codec ID : A_AC3
  80.       Duration : 2h 13mn
  81.       Bit rate mode : Constant
  82.       Bit rate : 640 Kbps
  83.       Channel(s) : 6 channels
  84.       Channel positions : Front: L C R, Surround: L R, LFE
  85.       Sampling rate : 48.0 KHz
  86.       Stream size : 612 MiB (94%)
  87.    Text #3
  88.       ID : 3
  89.       Format : SSA
  90.       Codec ID : S_TEXT/SSA
  91.       Codec ID/Info : Sub Station Alpha
  92.       Title : 上中下英
  93.    Text #4
  94.       ID : 4
  95.       Format : SSA
  96.       Codec ID : S_TEXT/SSA
  97.       Codec ID/Info : Sub Station Alpha
  98.       Title : 上英下中
  99.    Text #5
  100.       ID : 5
  101.       Format : UTF-8
  102.       Codec ID : S_TEXT/UTF8
  103.       Codec ID/Info : UTF-8 Plain Text
  104.       Title : 中文
  105.    Text #6
  106.       ID : 6
  107.       Format : UTF-8
  108.       Codec ID : S_TEXT/UTF8
  109.       Codec ID/Info : UTF-8 Plain Text
  110.       Title : 英文

  111. [img=1280,720]http://img.album.pchome.net/54/82/59/86/1abecba3c5e024432963ecb3eb528342.JPG[/img]

  112. [img=1280,720]http://img.album.pchome.net/54/82/59/86/a163c1085f37f1a13cccc98a85ecbd93.JPG[/img]




  113. [img]http://images.blu-ray.com/movies/covers/89_front.jpg[/img]

  114. 【原 片 名】Underworld Evolution
  115. 【中 文 名】黑夜传说2:进化/决战异世界2:进化时代
  116. 【出品公司】哥伦比亚三星 Columbia Tristar
  117. 【出品年代】2006 年
  118. 【首映日期】2006年1月20日
  119. 【MPAA级别】R
  120. 【官方网站】http://www.lakeshore-records.com/underworld_evolution/index.html
  121. 【IMDB链接】http://www.imdb.com/title/tt0401855/
  122. 【IMDB评分】6.6/10 (30,154 votes)
  123. 【国  家】美国/德国/匈牙利/英国
  124. 【类  别】动作/幻想/恐怖/惊悚
  125. 【影片长度】106 Mins
  126. 【对白语言】英语
  127. 【字  幕】含中文字幕
  128. 【导  演】朗·怀斯曼 Len Wiseman
  129. 【主  演】凯特·贝金塞尔 Kate Beckinsale .... Selene
  130.       斯科特·斯比德曼 Scott Speedman .... Michael Corvin
  131.       Tony Curran .... Marcus Corvinus
  132.       Shane Brolly .... Kraven
  133.       Derek Jacobi .... Alexander Corvinus (as Sir Derek Jacobi)
  134.       Bill Nighy .... Viktor
  135.       Steven Mackintosh .... Andreas Tanis
  136.       Zita G?r?g .... Amelia
  137.       Brian Steele .... William Corvinus
  138.       Scott McElroy .... Soren
  139.       John Mann .... Samuel
  140.       Michael Sheen .... Lucian
  141.       Sophia Myles .... Erika
  142.       Richard Cetrone .... Pierce (as Rich Cetrone)
  143.       Mike Mukatis .... Taylor

  144. 【内容简介】

  145.   《黑夜传说2:进化》延续了上一部中高贵神秘的“死亡营造者”吸血鬼族与凶悍残暴的狼人族之间的争斗,并由此展开。冷艳的女吸血鬼赛琳娜(凯特·贝金塞尔饰)与狼人和吸血鬼的混种迈克尔(斯科特·斯比德曼饰)自从相爱之后,便试图解开两个部落的血统之谜,化解数世纪堆积纠缠的新仇旧恨。不过事情远不如他们所想那么简单,更加黑暗的真相与阴谋在他们的探索中被一层层揭开……

  146.   本片是一部快节奏的、含有大量窒息打斗动作的现代化传奇。残酷的阴谋和不被允许的相爱令两人不得不卷入进这场最后的战争,将几个世纪以来的争斗画上休止符,就如那些不朽的生灵也终将面对他们的惩罚和审判……

  147. 幕后花絮:

  148.   本片是2003年票房大热的小成本动作片《黑夜传说》的续集,当时的投资仅为2300万美元,但却创下了周末三天2200万、全球票房过亿的好成绩,片商自然要大力催谷,立刻开拍续集。而且,第三部《黑夜传说前传》也在筹备过程中,并马上投入拍摄,剧本仍由伦·维斯曼(Len Wiseman)和丹尼·麦克布莱德(Danny McBride)编写。《黑夜传说》是伦·维斯曼在好莱坞第一次执导的大成本影片。出身于幕后工作人员的他不但会写剧本,也曾在1994年《星际奇兵》、 1996年《独立日》等片担任道具助理。

  149.   影片故事脱胎于莎翁经典悲剧爱情《罗密欧与朱丽叶》,特技效果则能明显看出《骇客帝国》的影子,尽管评论界对该片评价不高,却受到观众的热烈欢迎。在本片中,家族恩怨演化为部族仇杀、人类世界中的罗密欧与朱丽叶化身为地下世界的迈克尔和赛琳娜,作为莎翁名着《罗密欧与朱丽叶》的最新诠释版,《黑夜传说》融入了厚重的奇幻色彩和大量的现代元素,但古老的爱情主题依旧惨烈凄美。

  150.   此外,本片还撮合了导演伦·维斯曼和女主角凯特·贝金塞尔美好姻缘,见证了二人由相识、相恋到迈入结婚殿堂的过程。两人于2003年6月订婚,并在 2004年5月9日在洛杉矶完婚。据凯特·贝金塞尔的发言人说,婚礼规模并不大,邀请的宾客人数也不多,但气氛相当亲切、温馨。而这位女星与前任男友迈克 ·辛所生的五岁女儿莉莉,在婚礼上担任小花僮。

  151. 主演介绍:

  152. 凯特·贝金塞尔(Kate Beckinsale):

  153.   影片女主角凯特·贝金塞尔拥有姣美的面容和高雅的气质,她曾被Hello!杂志评为“25位最美丽的女人”中的第一,被誉为“集古典美和现代美于一身”的气质女星。2001年夏天,全球瞩目的电影《珍珠港》中的女主角便是她的闪光之作。贝金塞尔1973年7月出生于英国伦敦,父母都是着名电视演员。贝金塞尔16岁就开始步入影坛,20岁时在英国影片《无事生非》中出演角色。贝金塞尔曾就读于着名的牛津大学,主修法国文学与俄罗斯文学,但是为了自己的演艺事业而在大三那年中止了学业。自那时起,她的演艺事业一帆风顺,成为一颗冉冉升起的新星。早期作品有《无事生非》(Much Ado About Nothing)和《迪斯科的末日》(The Last Days ofDisco),还有与克莱尔·丹斯主演的《倒塌的宫殿》(Brokendown Palace)。由于2001年《珍珠港》的轰动,从英国漂洋过海到好莱坞寻求发展的“气质女星”凯特·贝金塞尔一夜之间变成家誉户晓的明星,幸运的转变就像好莱坞版的“现代灰姑娘”。 继《珍珠港》之后,她还相继推出了爱情喜剧片《美国情缘》、动作片《黑夜传说》和《范海辛》等卖座影片。

  154.   凯特·贝金塞尔曾与英国演员男友迈克·辛维持了长达7年多的爱情长跑。1999年1月她为迈克·辛产下一女,取名为莉莉·辛。但两人于2003年3月宣告分手,凯特·贝金塞尔独自带着女儿住在伦敦。之后,她因拍摄《黑夜传说》认识了现在的丈夫导演伦·维斯曼,并迅速相恋订婚,并于2004年结为正式夫妻。

  155. 斯科特·斯比德曼(Scott Speedman):

  156.   不同于大多数黄金城的新人,好莱坞起初并非斯彼德曼的首选单位。这个28岁的多伦多人从小就被家人培育为优秀运动员,还曾作为加拿大青年国家游泳队的一员参加了1992年的奥运会训练,然而颈部受伤却使得他提前离开了训练队。"我到了一所专门培养运动员和艺术家的学校,& quot;他回忆道,"因此当我受伤的时候,我开始转行学习艺术。直到十六、七岁的时候,我才开始接触像吉恩·哈克曼和达斯汀·霍夫曼这样的人物,对电影产生了浓厚的兴趣。"

  157.   他的表演生涯始于一次冒险,斯彼德曼自制的一盘录影带为他赢得了1995年《蝙蝠侠3》的面试机会。此后他在美国电视剧《费莉西蒂》 (Felicity)中取得了演艺事业上的重大突破,并帮助他登陆了第一部大银幕角色--2000年与格温妮丝·帕特洛共同出演的卡拉OK喜剧《二重奏》,之后他又主演了反映警界腐败内幕的影片《深蓝》,直到2003年5月,他主演的《黑夜传说》获得巨大票房成功,才让人们记住了他这个相貌英俊、略带羞涩的大男孩。

  158. 影片看点:美艳吸血女战士

  159.   当两年前的B级片《黑夜传说》悄悄登上银幕,没多少人觉得剑走“哥特”之风的吸血鬼与狼人之战有何经典可言,可大概这两个西方老牌恐怖阵营的魅力实在可观,加上吸取了《刀锋战士》、《骇客帝国》甚至《罗密欧与朱丽叶》三者口味,《黑夜传说》一跃成为当年大卖之作。

  160.   小成本+大收入,好莱坞不可能不趁热打铁推出续集,三部曲的预定理所当然。除了延续阴暗大战路线,并将血腥、火爆的战争场面继续发扬光大,众多“黑夜迷”们最期待的还有英国第一美女凯特·贝金赛尔继续性感出场。从《珍珠港》里柔情似水的护士,到《缘分天注定》中娇俏可人的准新娘,染上黑暗气质的贝金赛尔却更加迷人。

  161.   一身勾勒身材的黑色皮装、一脸苍白的楚楚可人,加上拼尽全力手持双枪战斗的火爆场面,美艳无比也酷劲十足。有如此大美女在黑暗世界中熠熠放光,配上鬼魅出没的地下世界、弥漫哥特式的诡谲阴郁,血腥的吸血鬼狼人大战以及新的幽暗危机,电影看来是要将传说中的终极大战进行到底了!

  162. 电影点评:好莱坞新式大拼盘

  163.   美丽悲凄的罗密欧与朱丽叶、传统经典恐怖片中的怪物设置、套用刀锋战士的最初设定、美艳迷人的性感女主角,将这些全揉合在一起,将背景设置在人类之外的地下世界,配上高贵的吸血鬼和野蛮嗜血的狼人大战,用酷炫的电脑动作特技和先进武器加工,将本来就血腥的杀戮继续升级--这就是杂和各类影片元素的《黑夜传说2:进化》。

  164.   好莱坞似乎永远有不知疲倦的挖掘精神,在创新方面已经有些黔驴技穷的它,越来越热衷起了拼拼凑凑的工作--将无数单个元素糅合在一起,炒炒冷饭,搞出看似新鲜的玩意,成了又一条捞钞票的新路子。传统的海盗片加入魔咒的《加勒比海盗》成了票房宠儿,《异形对铁血战士》、《弗莱迪大战杰森》之类的两种怪物大战之流倒也各有收获,《黑夜传说》第一集意外的高票房也很能说明问题。

  165.   “炒饭”本身也是好玩意,至于这炒饭味道如何,是否让观众买账,就全看厨子手艺如何了。在导演、主演不变的前提下,号称依然原汁原味的《黑2》将动作投入升级,保持着异族爱情的绝美凄艳、吸血鬼和狼人的恐怖、杀戮战争的刺激以及耐以成名的哥特美感,不管能不能一鸣惊人,至少在视觉上应该能让人满意而归。



  166. D:\bbs.cnscg.com 黑夜传说2:进化.mkv
  167.    Video #1
  168.       ID : 1
  169.       Format : AVC
  170.       Format/Info : Advanced Video Codec
  171.       Format profile : [email protected]
  172.       Format settings, CABAC : Yes
  173.       Format settings, ReFrames : 4 frames
  174.       Muxing mode : Container [email protected]
  175.       Codec ID : V_MPEG4/ISO/AVC
  176.       Duration : 1h 46mn
  177.       Bit rate : 110 Kbps
  178.       Nominal bit rate : 2 719 Kbps
  179.       Width : 1 280 pixels
  180.       Height : 720 pixels
  181.       Display aspect ratio : 16:9
  182.       Frame rate : 23.976 fps
  183.       Resolution : 8 bits
  184.       Colorimetry : 4:2:0
  185.       Scan type : Progressive
  186.       Bits/(Pixel*Frame) : 0.005
  187.       Stream size : 83.6 MiB (14%)
  188.       Writing library : x264 core 112 r1867 22bfd31
  189.       Encoding settings : cabac=1 / ref=5 / deblock=1:-3:-3 / analyse=0x3:0x113 / me=umh / subme=9 / psy=1 / psy_rd=1.00:0.10 / mixed_ref=1 / me_range=32 / chroma_me=1 / trellis=2 / 8x8dct=1 / cqm=0 / deadzone=21,11 / fast_pskip=0 / chroma_qp_offset=-2 / threads=6 / sliced_threads=0 / nr=0 / decimate=0 / interlaced=0 / constrained_intra=0 / bframes=3 / b_pyramid=1 / b_adapt=2 / b_bias=0 / direct=1 / weightb=1 / open_gop=0 / weightp=2 / keyint=250 / keyint_min=23 / scenecut=40 / intra_refresh=0 / rc_lookahead=40 / rc=2pass / mbtree=1 / bitrate=2719 / ratetol=1.0 / qcomp=0.60 / qpmin=10 / qpmax=51 / qpstep=4 / cplxblur=20.0 / qblur=0.5 / ip_ratio=1.40 / aq=1:1.00
  190.       Language : English
  191.    Audio #2
  192.       ID : 2
  193.       Format : AC-3
  194.       Format/Info : Audio Coding 3
  195.       Codec ID : A_AC3
  196.       Duration : 1h 46mn
  197.       Bit rate mode : Constant
  198.       Bit rate : 640 Kbps
  199.       Channel(s) : 6 channels
  200.       Channel positions : Front: L C R, Surround: L R, LFE
  201.       Sampling rate : 48.0 KHz
  202.       Stream size : 487 MiB (84%)
  203.    Text #3
  204.       ID : 3
  205.       Format : SSA
  206.       Codec ID : S_TEXT/SSA
  207.       Codec ID/Info : Sub Station Alpha
  208.       Title : 上中下英
  209.    Text #4
  210.       ID : 4
  211.       Format : SSA
  212.       Codec ID : S_TEXT/SSA
  213.       Codec ID/Info : Sub Station Alpha
  214.       Title : 上英下中
  215.    Text #5
  216.       ID : 5
  217.       Format : UTF-8
  218.       Codec ID : S_TEXT/UTF8
  219.       Codec ID/Info : UTF-8 Plain Text
  220.       Title : 中文
  221.    Text #6
  222.       ID : 6
  223.       Format : UTF-8
  224.       Codec ID : S_TEXT/UTF8
  225.       Codec ID/Info : UTF-8 Plain Text
  226.       Title : 英文


  227. [img=1280,720]http://img.album.pchome.net/54/82/59/86/918a0ca31aa1ced50ac77da9140f7784.JPG[/img]

  228. [img=1280,720]http://img.album.pchome.net/54/82/59/86/7412afabb8b9eade989dc0a68ddde04b.JPG[/img]

  229. D:\黑夜传说3.mkv
  230.    General
  231.       Complete name : D:\黑夜传说3.mkv
  232.       Format : Matroska
  233.       File size : 2.40 GiB
  234.       Duration : 1h 32mn
  235.       Overall bit rate : 3 709 Kbps
  236.       Encoded date : UTC 2011-01-28 09:13:16
  237.       Writing application : mkvmerge v3.0.0 ('Hang up your Hang-Ups') 编译于 Dec 12 2009 15:20:35
  238.       Writing library : libebml v0.7.9 + libmatroska v0.8.1
  239.    Video #1
  240.       ID : 1
  241.       Format : AVC
  242.       Format/Info : Advanced Video Codec
  243.       Format profile : [email protected]
  244.       Format settings, CABAC : Yes
  245.       Format settings, ReFrames : 4 frames
  246.       Muxing mode : Container [email protected]
  247.       Codec ID : V_MPEG4/ISO/AVC
  248.       Duration : 1h 32mn
  249.       Bit rate : 2 995 Kbps
  250.       Nominal bit rate : 3 071 Kbps
  251.       Width : 1 280 pixels
  252.       Height : 720 pixels
  253.       Display aspect ratio : 16:9
  254.       Frame rate : 23.976 fps
  255.       Resolution : 8 bits
  256.       Colorimetry : 4:2:0
  257.       Scan type : Progressive
  258.       Bits/(Pixel*Frame) : 0.136
  259.       Stream size : 1.93 GiB (81%)
  260.       Writing library : x264 core 112 r1867 22bfd31
  261.       Encoding settings : cabac=1 / ref=5 / deblock=1:-3:-3 / analyse=0x3:0x113 / me=umh / subme=9 / psy=1 / psy_rd=1.00:0.10 / mixed_ref=1 / me_range=32 / chroma_me=1 / trellis=2 / 8x8dct=1 / cqm=0 / deadzone=21,11 / fast_pskip=0 / chroma_qp_offset=-2 / threads=6 / sliced_threads=0 / nr=0 / decimate=0 / interlaced=0 / constrained_intra=0 / bframes=3 / b_pyramid=1 / b_adapt=2 / b_bias=0 / direct=1 / weightb=1 / open_gop=0 / weightp=2 / keyint=250 / keyint_min=23 / scenecut=40 / intra_refresh=0 / rc_lookahead=40 / rc=2pass / mbtree=1 / bitrate=3071 / ratetol=1.0 / qcomp=0.60 / qpmin=10 / qpmax=51 / qpstep=4 / cplxblur=20.0 / qblur=0.5 / ip_ratio=1.40 / aq=1:1.00
  262.       Language : English
  263.    Audio #2
  264.       ID : 2
  265.       Format : AC-3
  266.       Format/Info : Audio Coding 3
  267.       Codec ID : A_AC3
  268.       Duration : 1h 32mn
  269.       Bit rate mode : Constant
  270.       Bit rate : 640 Kbps
  271.       Channel(s) : 6 channels
  272.       Channel positions : Front: L C R, Surround: L R, LFE
  273.       Sampling rate : 48.0 KHz
  274.       Stream size : 423 MiB (17%)
  275.    Text #3
  276.       ID : 3
  277.       Format : SSA
  278.       Codec ID : S_TEXT/SSA
  279.       Codec ID/Info : Sub Station Alpha
  280.       Title : 上中下英
  281.    Text #4
  282.       ID : 4
  283.       Format : SSA
  284.       Codec ID : S_TEXT/SSA
  285.       Codec ID/Info : Sub Station Alpha
  286.       Title : 上英下中
  287.    Text #5
  288.       ID : 5
  289.       Format : UTF-8
  290.       Codec ID : S_TEXT/UTF8
  291.       Codec ID/Info : UTF-8 Plain Text
  292.       Title : 中文
  293.    Text #6
  294.       ID : 6
  295.       Format : UTF-8
  296.       Codec ID : S_TEXT/UTF8
  297.       Codec ID/Info : UTF-8 Plain Text
  298.       Title : 英文
  299. [img=1280,720]http://img.album.pchome.net/54/82/59/86/89ca30890a970baa806fce809884a6e5.JPG[/img]

  300. [img=1280,720]http://img.album.pchome.net/54/82/59/86/703dd5a2a5d952caba4fa2b15f6c391f.JPG[/img]

复制代码

签到天数: 12 天

[LV.3]偶尔看看II

 成长值: 15175

发表于 2011-1-30 18:11:35 | 显示全部楼层
继续等待1080的,谢谢辛苦了!!!

该用户从未签到

发表于 2011-1-30 18:13:17 | 显示全部楼层
就是等你...謝謝分享

该用户从未签到

发表于 2011-1-30 18:20:39 | 显示全部楼层
谢谢楼主的经典合集!

签到天数: 4 天

[LV.2]偶尔看看I

发表于 2011-1-30 18:21:04 | 显示全部楼层
谢谢楼主分享~~~~~~~

该用户从未签到

发表于 2011-1-30 18:21:41 | 显示全部楼层
又是前排支持  这个一定要洗版  谢谢火哥

签到天数: 243 天

[LV.8]以坛为家I

发表于 2011-1-30 18:23:39 | 显示全部楼层
前排留名支持

签到天数: 2 天

[LV.1]初来乍到

发表于 2011-1-30 18:25:12 | 显示全部楼层
本帖最后由 catlet919 于 2011-1-30 18:31 编辑

洗版了....................爱贝金赛尔~

感谢楼主发片~
P.S:置顶帖里的那个版本确实声音和字幕配不上...调得我手都要掉了。

该用户从未签到

发表于 2011-1-30 18:26:09 | 显示全部楼层
洗版!@!~~~~~~~~~~

评分

参与人数 1威望 -1 圣元 -12 收起 理由
wwwlc348 -1 -12 首页不认真回复。

查看全部评分

签到天数: 60 天

[LV.6]常住居民II

发表于 2011-1-30 18:27:17 | 显示全部楼层
感谢楼主发片~

签到天数: 60 天

[LV.6]常住居民II

发表于 2011-1-30 18:27:29 | 显示全部楼层
感谢楼主发片~

该用户从未签到

发表于 2011-1-30 18:29:38 | 显示全部楼层
第一集比较好看

签到天数: 1035 天

[LV.10]以坛为家III

发表于 2011-1-30 18:30:39 | 显示全部楼层
专业精神,大家又可以齐齐享受!

该用户从未签到

发表于 2011-1-30 18:30:49 | 显示全部楼层
洗洗更健康,收下了。

24小时最新

Top10精品合集

原创推荐

赞助广告

您需要登录后才可以回帖 登录 | 立即注册

使用帮助|捐助圣城|开通VIP|知识产权|Archiver| 圣城家园电影下载

©Hdscg.com 圣城家园|不良信息举报: [email protected]

IDC服务器合作邀请,联系QQ:1035284570

快速回复 返回顶部 返回列表