圣城家园 - BT下载 720P 1080P高清电影下载|字幕组|中英字幕|电视剧|美剧|迅雷下载|高清电影|日剧|韩剧|动漫|游戏|最新电影大片下载

发布新帖
乐于分享,把你的资源分享给全世界!
圣城家园!新网址启动!
www.cnscg.com
更多优质资源,这不仅仅是换一个域名。
查看: 21532|回复: 1779

[爱情] [恋恋笔记本]The.Notebook.2004.BluRay.720p.x264.AC3-CnSCG[中英字幕/2.9G]

    [复制链接]
发表于 2011-1-17 09:01:33 | 显示全部楼层 |阅读模式
本帖最后由 高清电影补档 于 2017-3-19 15:55 编辑
原盘压制

恋恋笔记本.jpg

原名:The Notebook
译名:恋恋记事本
导演:尼克·卡萨维茨Nick Cassavetes
原着:尼古拉斯·斯帕克斯Nicholas Sparks
主演:莱安·高斯利Ryan Gosling
   蕾切尔·麦克亚当斯Rachel McAdams
   詹姆斯·加纳James Garner
   吉娜·罗兰Gena Rowlands
   琼·艾伦Joan Allen
   詹姆斯·马斯登James Marsden
类型:剧情/爱情
级别:PG-13(涉及性的镜头)
出品:新线
字幕:点击打开字幕下载页
上映日期:2004年6月25日
官方网站:http://www.thenotebookmovie.com/


◆故事:我要我们在一起◆

  一家风光迤逦的私人疗养院,一位神秘的老男人(詹姆斯·加纳饰)每天都会准时拜访一位患有老年痴呆症的老女人(吉娜·罗兰饰)。他总是在腿上摊开一本褪色的笔记本,轻轻地为女人讲述其中记载的故事,每当女人听到日记中的字句,脸上就会迸发出异样的神采,仿佛再次回到那段激情燃烧的岁月……

  20世纪40年代,北加利福尼亚的海布鲁克,富有的尼尔森一家到此度假。女儿艾莉(蕾切尔·麦克亚当斯饰)正值豆蔻年华,她漂亮活泼,对周围的一切充满了好奇。夜幕降临,华灯初上,艾莉和好友来到当地的游乐场,忘情地玩起了摩天轮。年轻的诺亚(莱安·高斯利饰)被她爽朗的笑声吸引,不顾一切地爱上了这个女孩。尽管艾莉出身上流社会,诺亚只是一个穷小子,但他们还是跨越了阶层与观念,执着而热烈地相爱了。

  家人的阻挠和战争的爆发,最终将这对有情人分开,但爱的记忆却永久地保留在他们脑中。7年后,诺亚返回故土,艾莉已经在他的生活中消失,可她的音容笑貌仍时时浮现在诺亚的脑海,于是他按照当初两人的设想装饰了一座大屋。诺亚还不知道,艾莉已悄悄来到这个初恋的地方。再过几周,艾莉就要和富有的军官朗(詹姆斯·马斯登饰)结婚,却发觉自己仍然无法割舍这段情。两个人终于再次相遇,又重新开始了一段激情时光。他们多舛的爱情还会有幸福的未来吗?




D:\bbs.cnscg.com 恋恋笔记本.mkv
   Video #1
      ID : 1
      Format : AVC
      Format/Info : Advanced Video Codec
      Format profile : High@L4.1
      Format settings, CABAC : Yes
      Format settings, ReFrames : 4 frames
      Muxing mode : Container profile=Unknown@4.1
      Codec ID : V_MPEG4/ISO/AVC
      Duration : 2h 3mn
      Nominal bit rate : 2 709 Kbps
      Width : 1 280 pixels
      Height : 720 pixels
      Display aspect ratio : 16:9
      Frame rate : 23.976 fps
      Resolution : 8 bits
      Colorimetry : 4:2:0
      Scan type : Progressive
      Bits/(Pixel*Frame) : 0.123
      Writing library : x264 core 98 r1649 c54c47d
      Encoding settings : cabac=1 / ref=5 / deblock=1:-3:-3 / analyse=0x3:0x113 / me=umh / subme=9 / psy=1 / psy_rd=1.00:0.10 / mixed_ref=1 / me_range=32 / chroma_me=1 / trellis=2 / 8x8dct=1 / cqm=0 / deadzone=21,11 / fast_pskip=0 / chroma_qp_offset=-2 / threads=6 / sliced_threads=0 / nr=0 / decimate=0 / interlaced=0 / constrained_intra=0 / bframes=3 / b_pyramid=1 / b_adapt=2 / b_bias=0 / direct=1 / weightb=1 / weightp=2 / keyint=250 / keyint_min=25 / scenecut=40 / intra_refresh=0 / rc_lookahead=40 / rc=2pass / mbtree=1 / bitrate=2709 / ratetol=1.0 / qcomp=0.60 / qpmin=10 / qpmax=51 / qpstep=4 / cplxblur=20.0 / qblur=0.5 / ip_ratio=1.40 / aq=1:1.00
      Language : English
   Audio #2
      ID : 2
      Format : AC-3
      Format/Info : Audio Coding 3
      Codec ID : A_AC3
      Duration : 2h 3mn
      Bit rate mode : Constant
      Bit rate : 640 Kbps
      Channel(s) : 6 channels
      Channel positions : Front: L C R, Surround: L R, LFE
      Sampling rate : 48.0 KHz
      Stream size : 567 MiB
   Text #3
      ID : 3
      Format : SSA
      Codec ID : S_TEXT/SSA
      Codec ID/Info : Sub Station Alpha
      Title : 上中下英
   Text #4
      ID : 4
      Format : SSA
      Codec ID : S_TEXT/SSA
      Codec ID/Info : Sub Station Alpha
      Title : 上英下中
   Text #5
      ID : 5
      Format : UTF-8
      Codec ID : S_TEXT/UTF8
      Codec ID/Info : UTF-8 Plain Text
      Title : 中文
   Text #6
      ID : 6
      Format : UTF-8
      Codec ID : S_TEXT/UTF8
      Codec ID/Info : UTF-8 Plain Text
      Title : 英文



游客,如果您要查看本帖隐藏内容请回复,如果您想无广告、免回复、免费下载附件请开通VIP:VIP传送门

最新回复

 楼主| 发表于 2011-1-17 09:03:12 | 显示全部楼层
本帖最后由 流氓兔兔 于 2011-1-17 16:02 编辑

  1. [quote][color=blue][size=5]原盘压制[/size][/color][/quote]

  2. [url=http://bbs.cnscg.com/][img]http://images.blu-ray.com/movies/covers/1969_front.jpg[/img][/url]


  3. 原名:The Notebook
  4. 译名:恋恋记事本
  5. 导演:尼克·卡萨维茨Nick Cassavetes
  6. 原着:尼古拉斯·斯帕克斯Nicholas Sparks
  7. 主演:莱安·高斯利Ryan Gosling
  8.    蕾切尔·麦克亚当斯Rachel McAdams
  9.    詹姆斯·加纳James Garner
  10.    吉娜·罗兰Gena Rowlands
  11.    琼·艾伦Joan Allen
  12.    詹姆斯·马斯登James Marsden
  13. 类型:剧情/爱情
  14. 级别:PG-13(涉及性的镜头)
  15. 出品:新线
  16. 字幕:点击打开字幕下载页
  17. 上映日期:2004年6月25日
  18. 官方网站:[url=http://www.thenotebookmovie.com/]http://www.thenotebookmovie.com/[/url]


  19. ◆故事:我要我们在一起◆

  20.   一家风光迤逦的私人疗养院,一位神秘的老男人(詹姆斯·加纳饰)每天都会准时拜访一位患有老年痴呆症的老女人(吉娜·罗兰饰)。他总是在腿上摊开一本褪色的笔记本,轻轻地为女人讲述其中记载的故事,每当女人听到日记中的字句,脸上就会迸发出异样的神采,仿佛再次回到那段激情燃烧的岁月……

  21.   20世纪40年代,北加利福尼亚的海布鲁克,富有的尼尔森一家到此度假。女儿艾莉(蕾切尔·麦克亚当斯饰)正值豆蔻年华,她漂亮活泼,对周围的一切充满了好奇。夜幕降临,华灯初上,艾莉和好友来到当地的游乐场,忘情地玩起了摩天轮。年轻的诺亚(莱安·高斯利饰)被她爽朗的笑声吸引,不顾一切地爱上了这个女孩。尽管艾莉出身上流社会,诺亚只是一个穷小子,但他们还是跨越了阶层与观念,执着而热烈地相爱了。

  22.   家人的阻挠和战争的爆发,最终将这对有情人分开,但爱的记忆却永久地保留在他们脑中。7年后,诺亚返回故土,艾莉已经在他的生活中消失,可她的音容笑貌仍时时浮现在诺亚的脑海,于是他按照当初两人的设想装饰了一座大屋。诺亚还不知道,艾莉已悄悄来到这个初恋的地方。再过几周,艾莉就要和富有的军官朗(詹姆斯·马斯登饰)结婚,却发觉自己仍然无法割舍这段情。两个人终于再次相遇,又重新开始了一段激情时光。他们多舛的爱情还会有幸福的未来吗?




  23. D:\bbs.cnscg.com 恋恋笔记本.mkv
  24.    Video #1
  25.       ID : 1
  26.       Format : AVC
  27.       Format/Info : Advanced Video Codec
  28.       Format profile : [url=mailto:High@L4.1]High@L4.1[/url]
  29.       Format settings, CABAC : Yes
  30.       Format settings, ReFrames : 4 frames
  31.       Muxing mode : Container profile=Unknown@4.1
  32.       Codec ID : V_MPEG4/ISO/AVC
  33.       Duration : 2h 3mn
  34.       Nominal bit rate : 2 709 Kbps
  35.       Width : 1 280 pixels
  36.       Height : 720 pixels
  37.       Display aspect ratio : 16:9
  38.       Frame rate : 23.976 fps
  39.       Resolution : 8 bits
  40.       Colorimetry : 4:2:0
  41.       Scan type : Progressive
  42.       Bits/(Pixel*Frame) : 0.123
  43.       Writing library : x264 core 98 r1649 c54c47d
  44.       Encoding settings : cabac=1 / ref=5 / deblock=1:-3:-3 / analyse=0x3:0x113 / me=umh / subme=9 / psy=1 / psy_rd=1.00:0.10 / mixed_ref=1 / me_range=32 / chroma_me=1 / trellis=2 / 8x8dct=1 / cqm=0 / deadzone=21,11 / fast_pskip=0 / chroma_qp_offset=-2 / threads=6 / sliced_threads=0 / nr=0 / decimate=0 / interlaced=0 / constrained_intra=0 / bframes=3 / b_pyramid=1 / b_adapt=2 / b_bias=0 / direct=1 / weightb=1 / weightp=2 / keyint=250 / keyint_min=25 / scenecut=40 / intra_refresh=0 / rc_lookahead=40 / rc=2pass / mbtree=1 / bitrate=2709 / ratetol=1.0 / qcomp=0.60 / qpmin=10 / qpmax=51 / qpstep=4 / cplxblur=20.0 / qblur=0.5 / ip_ratio=1.40 / aq=1:1.00
  45.       Language : English
  46.    Audio #2
  47.       ID : 2
  48.       Format : AC-3
  49.       Format/Info : Audio Coding 3
  50.       Codec ID : A_AC3
  51.       Duration : 2h 3mn
  52.       Bit rate mode : Constant
  53.       Bit rate : 640 Kbps
  54.       Channel(s) : 6 channels
  55.       Channel positions : Front: L C R, Surround: L R, LFE
  56.       Sampling rate : 48.0 KHz
  57.       Stream size : 567 MiB
  58.    Text #3
  59.       ID : 3
  60.       Format : SSA
  61.       Codec ID : S_TEXT/SSA
  62.       Codec ID/Info : Sub Station Alpha
  63.       Title : 上中下英
  64.    Text #4
  65.       ID : 4
  66.       Format : SSA
  67.       Codec ID : S_TEXT/SSA
  68.       Codec ID/Info : Sub Station Alpha
  69.       Title : 上英下中
  70.    Text #5
  71.       ID : 5
  72.       Format : UTF-8
  73.       Codec ID : S_TEXT/UTF8
  74.       Codec ID/Info : UTF-8 Plain Text
  75.       Title : 中文
  76.    Text #6
  77.       ID : 6
  78.       Format : UTF-8
  79.       Codec ID : S_TEXT/UTF8
  80.       Codec ID/Info : UTF-8 Plain Text
  81.       Title : 英文

  82. [url=http://bbs.cnscg.com/][img]http://img.album.pchome.net/54/82/55/54/87dae548c7ae15a9751e3ce12d8ce9a9.JPG[/img][/url]

  83. [url=http://bbs.cnscg.com/][img]http://img.album.pchome.net/54/82/55/54/1c1da7ac3e3b8c48c59559f3d65670c0.JPG[/img][/url]

复制代码
发表于 2011-1-17 09:04:18 | 显示全部楼层
非常感人的爱情片,执子之手,与子偕老,感人。
发表于 2011-1-17 09:09:59 | 显示全部楼层
本帖最后由 hljwsq 于 2011-1-17 09:10 编辑

这个电影没看过,下载了
发表于 2011-1-17 09:14:55 | 显示全部楼层
这么靠前,谢谢楼主的分享

 成长值: 14575

发表于 2011-1-17 09:15:08 | 显示全部楼层
支持一下,谢谢分享!!
发表于 2011-1-17 09:18:07 | 显示全部楼层
谢谢分享 非常感人的爱情片
发表于 2011-1-17 09:29:02 | 显示全部楼层
谢谢楼主的分享
发表于 2011-1-17 09:34:04 | 显示全部楼层
好片子,以前看过的可以重温,http://www.imdb.com/title/tt0332280/
得分很高的呀
发表于 2011-1-17 09:34:05 | 显示全部楼层
一个执着的爱情故事。
发表于 2011-1-17 09:34:17 | 显示全部楼层
提示: 作者被禁止或删除 内容自动屏蔽
发表于 2011-1-17 09:35:23 | 显示全部楼层
要下来看的,谢谢楼主
发表于 2011-1-17 09:38:36 | 显示全部楼层
想看想看想看
发表于 2011-1-17 09:38:47 | 显示全部楼层
这个真的是很不错的片子 谢谢楼主分享
发表于 2011-1-17 09:41:13 | 显示全部楼层
不错的片子,评分挺高

24小时最新

Top10精品合集

原创推荐

赞助广告

圣城家园 - 新网址启动!

欢迎大家访问新网址下载资源,新网址用户数据、VIP账号全部通用!

新网址:www.cnscg.com 点击访问

说明:
1. 换新网址为了解决部分用户无法正常访问圣城;
2. 下载资源、用户数据、VIP数据,全部通用;
3. 新网址全部恢复更新,旧网址依然开放(只能查看)不再更新;
4. 下载资源、签到、领取红包、VIP开通,请访问新网址;
使用帮助|捐助家园|开通VIP|知识产权|Archiver| 圣城家园电影下载

©Hdscg.com 圣城家园|不良信息举报: hdscgcom@gmail.com

快速回复 返回顶部 返回列表