圣城家园 - BT下载 720P 1080P高清电影下载|字幕组|中英字幕|电视剧|美剧|迅雷下载|高清电影|日剧|韩剧|动漫|游戏|最新电影大片下载

发布新帖
乐于分享,把你的资源分享给全世界!
圣城家园!新网址启动!
www.cnscg.com
更多优质资源,这不仅仅是换一个域名。
查看: 25584|回复: 2621

[惊悚] [冷冻]Frozen.2010.Bluray.720p.AC3.x264-CnSCG[中英字幕/2.1G]

    [复制链接]
发表于 2010-9-20 22:06:56 | 显示全部楼层 |阅读模式
本帖最后由 高清电影补档 于 2017-3-19 21:24 编辑

冷冻.jpg

【影片原名】Frozen
【中文译名】冷冻/冰峰36小时(港)
【出品公司】Anchor Bay Films
【出品年代】2010 年
【上映日期】2010年3月25日 哈萨克斯坦
【影片级别】Canada:14A (Alberta/British Columbia/Manitoba/Ontario) | USA:R | Mexico:B | Singapore:M18 | Brazil:12
【官方网站】http://www.frozen-film.com/
【IMDB链接】http://www.imdb.com/title/tt1323045/
【IMDB评分】7.0/10 (1,280 votes)
【国  家】美国
【类  别】剧情/惊悚
【导  演】亚当·格林 Adam Green
【主  演】艾玛·贝尔 Emma Bell ... Parker
      凯文·席格斯 Kevin Zegers ... Dan
      肖恩·阿什莫 Shawn Ashmore ... Lynch
      Ed Ackerman ... Jason
      Rileah Vanderbilt ... Shannon
      Adam Johnson ... Rifkin
      Chris York ... Ryan
      Peder Melhuse ... Driver
      凯恩·霍德尔 Kane Hodder
      Will Barratt ... Sullivan (uncredited)
      亚当·格林 Adam Green ... Guy on Chairlift #1 (uncredited)
      乔·林奇 Joe Lynch ... Guy on Chairlift #2 (uncredited)
      Cody Blue Snider ... Twisted Sister Fan in Cafeteria (uncredited)

【内容简介】

三位滑雪者在滑雪过程中意外被困在缆车上,由于当时天色已黑,无人知晓,他们被迫要做出生死的抉择,否则就要面临冻死的命运……


  三个好朋友本想趁滑雪场关门前,争取时间登山玩多一转,怎料竟是恶梦的开始;雪场职员不察觉仍有人在登山吊椅上,照常关掉总制下班去。一切突然停顿只得漆黑一片,三人被孤立在冰天雪地,离地百尺的严寒高空。

  雪场下一个周末才会再开门,与其在恶劣的环境等候五天,他们决定要自救逃生,岂料反陷入更凶险的境况;威胁他们的不单是零下低温,是更多突如其来的危险和绝望。他们开始怀疑人类的求生意志,是否敌得过上天的死亡袭击……


E:\压制MKV专用文件夹\冷冻£圣城打佛\bbs.cnscg.com 冷冻.mkv
   General
      Complete name : E:\压制MKV专用文件夹\冷冻£圣城打佛\bbs.cnscg.com 冷冻.mkv
      Format : Matroska
      File size : 2.10 GiB
      Duration : 1h 33mn
      Overall bit rate : 3 215 Kbps
      Encoded date : UTC 2010-09-20 12:58:49
      Writing application : mkvmerge v3.0.0 ('Hang up your Hang-Ups') 编译于 Dec 12 2009 15:20:35
      Writing library : libebml v0.7.9 + libmatroska v0.8.1
   Video #1
      ID : 1
      Format : AVC
      Format/Info : Advanced Video Codec
      Format profile : High@L4.1
      Format settings, CABAC : Yes
      Format settings, ReFrames : 4 frames
      Muxing mode : Container profile=Unknown@4.1
      Codec ID : V_MPEG4/ISO/AVC
      Duration : 1h 33mn
      Bit rate : 2 703 Kbps
      Nominal bit rate : 2 770 Kbps
      Width : 1 280 pixels
      Height : 720 pixels
      Display aspect ratio : 16:9
      Frame rate : 23.976 fps
      Resolution : 8 bits
      Colorimetry : 4:2:0
      Scan type : Progressive
      Bits/(Pixel*Frame) : 0.122
      Stream size : 1.76 GiB (84%)
      Writing library : x264 core 98 r1649 20cbe10
      Encoding settings : cabac=1 / ref=5 / deblock=1:-3:-2 / analyse=0x3:0x113 / me=umh / subme=9 / psy=1 / psy_rd=1.00:0.10 / mixed_ref=1 / me_range=32 / chroma_me=1 / trellis=2 / 8x8dct=1 / cqm=0 / deadzone=21,11 / fast_pskip=0 / chroma_qp_offset=-2 / threads=6 / sliced_threads=0 / nr=0 / decimate=0 / interlaced=0 / constrained_intra=0 / bframes=3 / b_pyramid=1 / b_adapt=2 / b_bias=0 / direct=1 / weightb=1 / weightp=2 / keyint=250 / keyint_min=25 / scenecut=40 / intra_refresh=0 / rc_lookahead=40 / rc=2pass / mbtree=1 / bitrate=2770 / ratetol=1.0 / qcomp=0.60 / qpmin=10 / qpmax=51 / qpstep=4 / cplxblur=20.0 / qblur=0.5 / ip_ratio=1.40 / aq=1:1.00
      Language : English
   Audio #2
      ID : 2
      Format : AC-3
      Format/Info : Audio Coding 3
      Codec ID : A_AC3
      Duration : 1h 33mn
      Bit rate mode : Constant
      Bit rate : 448 Kbps
      Channel(s) : 6 channels
      Channel positions : Front: L C R, Surround: L R, LFE
      Sampling rate : 48.0 KHz
      Stream size : 299 MiB (14%)
   Text #3
      ID : 3
      Format : SSA
      Codec ID : S_TEXT/SSA
      Codec ID/Info : Sub Station Alpha
      Title : 上中下英
   Text #4
      ID : 4
      Format : SSA
      Codec ID : S_TEXT/SSA
      Codec ID/Info : Sub Station Alpha
      Title : 上英下中
   Text #5
      ID : 5
      Format : UTF-8
      Codec ID : S_TEXT/UTF8
      Codec ID/Info : UTF-8 Plain Text
      Title : 中文
   Text #6
      ID : 6
      Format : UTF-8
      Codec ID : S_TEXT/UTF8
      Codec ID/Info : UTF-8 Plain Text
      Title : 英文





支持圣城家园,累积每一份鼓励 ♥ 马上开通VIP,专享VIP影视资源,优先观看!VIP影视库

VIP特权:专享资源、优先观看、无广告、免回复、免费下载、专属客服 ... 更多特权

游客,查看VIP资源下载,请开通VIP:VIP传送门


游客,如果您要查看本帖隐藏内容请回复,如果您想无广告、免回复、免费下载附件请开通VIP:VIP传送门

评分

参与人数 1圣元 +100 收起 理由
壹①⑥ + 100 楼主一出手,就知有没有

查看全部评分

最新回复

发表于 2010-9-20 22:10:08 | 显示全部楼层
呵呵,支持一个。。。沙发
发表于 2010-9-20 22:11:37 | 显示全部楼层
这个肯定好看~谢谢啊
发表于 2010-9-20 22:12:19 | 显示全部楼层
这个大小比较合适,谢谢

 成长值: 16000

发表于 2010-9-20 22:14:40 | 显示全部楼层
就等圣城出了
发表于 2010-9-20 22:15:04 | 显示全部楼层
这个肯定好看~谢谢啊
发表于 2010-9-20 22:15:26 | 显示全部楼层
头一次这么靠前,收了,谢谢。
发表于 2010-9-20 22:15:31 | 显示全部楼层
高清版的,谢谢啊
发表于 2010-9-20 22:19:35 | 显示全部楼层
看似不错啊,谢谢lz
发表于 2010-9-20 22:20:33 | 显示全部楼层
应该是部非常有心理内涵的片子
发表于 2010-9-20 22:20:47 | 显示全部楼层
这个大小比较合适,谢谢
发表于 2010-9-20 22:20:51 | 显示全部楼层
应该是部非常有心理内涵的片子
发表于 2010-9-20 22:23:59 | 显示全部楼层
又是一部属于灾难题材的电影,很不错,哈哈,喜欢,刚看完“完美风暴”这又来了,好啊

 成长值: 4780

发表于 2010-9-20 22:24:04 | 显示全部楼层
貌似挺好看,谢谢分享
发表于 2010-9-20 22:26:35 | 显示全部楼层
非常好看的电影 谢谢分享

24小时最新

Top10精品合集

原创推荐

赞助广告

圣城家园 - 新网址启动!

欢迎大家访问新网址下载资源,新网址用户数据、VIP账号全部通用!

新网址:www.cnscg.com 点击访问

说明:
1. 换新网址为了解决部分用户无法正常访问圣城;
2. 下载资源、用户数据、VIP数据,全部通用;
3. 新网址全部恢复更新,旧网址依然开放(只能查看)不再更新;
4. 下载资源、签到、领取红包、VIP开通,请访问新网址;
使用帮助|捐助家园|开通VIP|知识产权|Archiver| 圣城家园电影下载

©Hdscg.com 圣城家园|不良信息举报: hdscgcom@gmail.com

快速回复 返回顶部 返回列表