圣城家园 - BT下载 720P 1080P高清电影下载|字幕组|中英字幕|电视剧|美剧|迅雷下载|高清电影|日剧|韩剧|动漫|游戏|最新电影大片下载

发布新帖
乐于分享,把你的资源分享给全世界!
查看: 37299|回复: 1419

[科幻] [生化危机3]Extinction 2007.BluRay.720p.DTS.x264-SCGHD[中英字幕/4.37G]

    [复制链接]

该用户从未签到

发表于 2010-8-28 14:38:28 | 显示全部楼层 |阅读模式
生3.jpg

【影片原名】Resident Evil: Extinction
【外文别名】Resident Evil 3/Resident Evil: Afterlife/Resident Evil - V ljasuremine/Resident evil: Tuho
【中文译名】生化危机3:灭绝/恶灵古堡3:大灭绝/生化危机:绝种生还者
【出品公司】索尼屏珍Screen Gems
【出品年代】2007 年
【上映日期】2007年9月21日 美国
【影片级别】美国:R
【官方网站】http://www.sonypictures.com/movies/residentevilextinction/
【IMDB链接】http://www.imdb.com/title/tt0432021/
【IMDB评分】6.4/10 (15,807 votes)
【国  家】法国/澳大利亚/德国/英国/美国
【类  别】动作/恐怖/科幻/惊悚
【导  演】拉塞尔·莫克利
【主  演】Milla Jovovich ... Alice
      Oded Fehr ... Carlos Olivera
      Ali Larter ... Claire Redfield
      Iain Glen ... Dr. Isaacs
      Ashanti ... Betty
      Christopher Egan ... Mikey
      Spencer Locke ... K-Mart
      Matthew Marsden ... Slater
      Linden Ashby ... Chase
      Jason O'Mara ... Albert Wesker
      Mike Epps ... L.J.
      Joe Hursley ... Otto
      John Eric Bentley ... Umbrella Tech
      James Tumminia ... Lab Tech
      Kirk B.R. Woller ... Scientist

【内容简介】

本片根据《生化危机》第一部的导演Paul W.S. Anderson的剧本拍摄。女主角Alice依然是Anderson的妻子兼名模Milla Jovovich主演,剧情上本片将会延续第一部的故事。讲述Alice逃出安布雷拉公司的实验室之后,整个城市已经沦为废墟,如今她将会在美国西南部沙漠地带碰到更多的丧尸。

幕后制作:

  【最成功的游戏改编电影】


  本片是耗资10亿美元的《生化危机》三部曲的最后一个部分,改编自那款风靡了一时的同名电脑游戏……2002年,《生化危机》成功地建立了游戏改编电影的生存环境;到了2004年,《生化危机2:启示录》中的艾丽丝在L·J以及从保护伞公司叛变的警官卡洛斯·奥利维拉的帮助下成功从浣熊市逃了出来;如今在《生化危机3:灭绝》中,仅仅过了三年时间,城市变成了沙漠,一小撮有幸活下来的人类在拉斯维加斯的废墟中游荡着,不断地从一个地方抵达另一个地方,想尽一切办法只是为了逃开埋伏在空旷地带的不死僵尸的围攻--当然,你已经没办法再把这些无意识的行尸走肉称为人类了。


  影片的编剧兼制片人保罗·安德森,一直以来都是《生化危机》系列最中坚的创作力量,他表示:“在我看来,《生化危机》系列的强大之处就在于它们不仅仅是简单的僵尸电影,里面讲述的也不只是如何和‘活死人’战斗,其中有许多和科幻有关的概念,使得它们凌驾于其他的僵尸作品之上。”


  康斯坦丁影业的制片人伯恩·伊钦格(Bernd Eichinger)、罗伯特·库尔泽(Robert Kulzer)和马丁·莫兹科维茨(Martin Moszkowicz)是最先想到要把经典游戏《生化危机》搬上大银幕的人,不过,直到后来影响电影制作公司的杰里米·鲍伊特(Jeremy Bolt)和保罗·安德森分别加入进来,一切才算正式步上正轨,库尔泽说:“安德森所做的一切,对于一个电影流派的影响都至关深远。《生化危机》系列很有史诗的味道,讲述了一个可以拍出几部完全不同的影片的故事,既可以结合在一起,也可以分开来看……里面的所有角色都有他们存在的意义。他与这部系列电影似乎有着某种心电感应,包括角色和电脑游戏的世界,我觉得,他的想象力让这个世界变得完全不一样了。”


  故事发展到第三集,接手导演工作的人就换成了拉塞尔·马尔卡希,一位以MV导演身份开始他的事业的电影人,曾执导过多部有创造性的动作影片,例如《挑战者》和《挑战者2:天幕之战》,还有《影子》和《天威绝网》,保罗·安德森说:“对于我们这一代人来说,《挑战者》绝对称得上是电影工业的一个里程碑。马尔卡希率先发明了一种非常清楚的视觉风格,利用许多部可以移动的摄像机和升降架,以及非常多的快速剪辑。他拥有一双很独到的眼光,尤其是对那些很酷的事物非常有感觉,同时还能找到伟大的拍摄方式将其表现出来。他的作品对我的影响确实很大,所以能有机会合作,我感到很不可思议。”


  制片人罗伯特·库尔泽也陷入了回忆之中:“当我们第一次与拉塞尔·马尔卡希见面时,他的手里拿着一个厚厚的本子,那是他为整部影片画好的情节串连图板,然后他给我们从头至尾、一个镜头一个镜头、一个场景接一个场景地讲解……我们都被他的认真劲感动了。”


  拉塞尔·马尔卡希则表示:“恐怖电影总能引起我最大限度的激情,所以能够为这样一个梦幻般的故事做导演,对于我来说也是一个难得的机会。单就视觉方面而言,《生化危机3:灭绝》与前两部影片有着明显的区别:第一集故事是以幽闭恐惧气氛为主的室内惊悚片;第二集则换到了室外,变成了夜晚潮湿的街道……现在,我们把主角们带到了沙漠地带,有意制造一种西部的荒凉感,同时又充满了未来感,既疯狂又让人毛骨悚然。”


  【后世界末日时代】


  编剧兼制片人保罗·安德森对《生化危机3:灭绝》中的故事进行了非常透彻的分析:“在创作剧本的时候,我从那种拥有‘后世界末日时代’情节的流派电影中获得了很多灵感,而《疯狂的麦克斯》和《疯狂的麦克斯2》是此类型片中最出色的两部。可是现代观众里,几乎已经没有人记得看着装甲车在沙漠中摧毁一切是多么酷的一件事。”由于前两部影片的故事背景地都是那种有限的空间,所以第三集就要制造出更大范围的动作场面,发生在具有后世界末日时代风格的地貌上,而且完全是在大白天。


  拉塞尔·马尔卡希表示:“不是所有可怕的事情都必须要发生在夜晚,有的时候,太阳当空照的大白天发生的恐怖事件要更加吓人。虽然我们拍摄了一些发生在黑暗中的神经质场景,但却是在沙地上得到了真正拥有视觉冲击力的那一部分……那里给人的感觉就好像是拉斯维加斯的繁华已经被沙子埋藏了。至于位于地下的保护伞公司,里面的主色调则是蓝色,是一种冰冷的金属感,到处都给人一种清爽、深奥的感觉。不过其中最重要的一点,就是不能摘除游戏中的任何一种元素,我们一直坚持,要保护住原款游戏之所以成为经典的灵魂。”


  已经有了两部“前辈”当借鉴,《生化危机3:灭绝》选择的是与当代的时代思潮产生共振,制片人罗伯特·库尔泽说:“第三集影片真正关注的是有关石油和供给的短缺,这也是为什么沙漠会渐渐取代现代文明。要知道,我们在拍摄的是一部科幻动作片,所以它肯定会和我们所知道的那个世界有一些细微的差别,但是所遵循的发展规律却完全是一样的。”《生化危机3:灭绝》虽然百分百是一个原创故事,不过它展现的那个世界却是游戏迷所熟识的,保罗·安德森补充道:“我们一直努力制作一部让游戏迷满意的影片,在这个基础上,再为那些从未玩过游戏的观众提供一个有趣的观影经历。”


  《生化危机》系列电影的恐怖之源,无疑就是那些受到T-病毒侵袭而产生异变的活死人了,所以,有关“活死人”这个概念会被继续保留下去,保罗·安德森的解释是:“游戏在发展在进步,涉及的范围也会越来越广,所以我认为影片也应该有相应的改变。这也是为什么我们引入了‘超级活死人’这个名词--保护伞公司用活死人做实验,尝试着研究一种能够让异变的人类恢复一些理智的药剂,不幸的是,这些试验并没有成功,反而产生了副作用,最终变成了‘超级活死人’,是一种比活死人更快、更强壮,也更狡猾的致命生物,真正可怕的敌人。”


  不过,这些没有思想的“肉食生物”并不是《生化危机3:灭绝》中人类角色面对的惟一敌人,保罗·安德森继续说:“我们还将游戏迷们最喜欢的‘暴君’带进故事中,这也是我在游戏中最喜欢的一个角色。另外,前两集中的经典生物也会重复出现,例如说狗……不过最精彩的是,我们还将使用一些乌鸦,不是普通的乌鸦,而是变异过的。”在必须坚守游戏的灵魂所在的大前提下,安德森还是为整个故事带来了一些新鲜的风格,而拉塞尔·马尔卡希加入更是让这部影片的拍摄渐露曙光,安德森继续说:“如果只是简单地复制游戏,并不能成就一部出色的影片,因为人们对于故事中将会发生什么,以及角色最终的生与死,都了如指掌。所以说,对于我们来说这样的挑战还真让人头疼,因为我们不但需要维持住游戏的真实性,还得小小地打破一下常规。”


花絮:

·影片中艾丽丝所有的服饰装扮,都是由米拉·乔沃维奇自己创造的衣服生产线乔沃维奇-霍克(Jovovich-Hawk)设计的。


·那张艾丽丝拿着两把印度反曲刀的剧照,是参照《生化危机2:启示录》的海报的视觉感摆拍出来的。


·影片本来计划在澳大利亚拍摄,但后来更改为墨西哥。


·第一套根据电脑游戏改编而成的电影三部曲。


·影片的第一款预告片在三年前与观众第一次见面,其中的背景乐是美国首席电子乐队"水晶疗法"(The Crystal Method)的《我知道是你》(I Know It's You),至于音乐里面的呐喊和惨叫,则是米拉·乔沃维奇亲自加进去的。



D:\生化危机3 720P-SCG.mkv
   General
      Complete name : D:\生化危机3 720P-SCG.mkv
      Format : Matroska
      File size : 4.37 GiB
      Duration : 1h 34mn
      Overall bit rate : 6 653 Kbps
      Encoded date : UTC 2010-08-27 03:23:50
      Writing application : mkvmerge v3.0.0 ('Hang up your Hang-Ups') 编译于 Dec 12 2009 15:20:35
      Writing library : libebml v0.7.9 + libmatroska v0.8.1
   Video #1
      ID : 1
      Format : AVC
      Format/Info : Advanced Video Codec
      Format profile : [email protected]
      Format settings, CABAC : Yes
      Format settings, ReFrames : 7 frames
      Muxing mode : Container [email protected]
      Codec ID : V_MPEG4/ISO/AVC
      Duration : 1h 34mn
      Bit rate : 5 011 Kbps
      Nominal bit rate : 5 146 Kbps
      Width : 1 280 pixels
      Height : 536 pixels
      Display aspect ratio : 2.35:1
      Frame rate : 23.976 fps
      Resolution : 8 bits
      Colorimetry : 4:2:0
      Scan type : Progressive
      Bits/(Pixel*Frame) : 0.305
      Stream size : 3.29 GiB (75%)
      Writing library : x264 core 98 r1649 c54c47d
      Encoding settings : cabac=1 / ref=8 / deblock=1:-3:-2 / analyse=0x3:0x113 / me=umh / subme=10 / psy=1 / psy_rd=1.00:0.10 / mixed_ref=1 / me_range=32 / chroma_me=1 / trellis=2 / 8x8dct=1 / cqm=0 / deadzone=21,11 / fast_pskip=0 / chroma_qp_offset=-2 / threads=6 / sliced_threads=0 / nr=0 / decimate=0 / interlaced=0 / constrained_intra=0 / bframes=3 / b_pyramid=1 / b_adapt=2 / b_bias=0 / direct=1 / weightb=1 / weightp=2 / keyint=250 / keyint_min=25 / scenecut=40 / intra_refresh=0 / rc_lookahead=40 / rc=2pass / mbtree=1 / bitrate=5146 / ratetol=1.0 / qcomp=0.60 / qpmin=10 / qpmax=51 / qpstep=4 / cplxblur=20.0 / qblur=0.5 / ip_ratio=1.40 / aq=1:1.00
      Language : English
   Audio #2
      ID : 2
      Format : DTS
      Format/Info : Digital Theater Systems
      Codec ID : A_DTS
      Duration : 1h 34mn
      Bit rate mode : Constant
      Bit rate : 1 510 Kbps
      Channel(s) : 6 channels
      Channel positions : Front: L C R, Surround: L R, LFE
      Sampling rate : 48.0 KHz
      Resolution : 24 bits
      Stream size : 1 016 MiB (23%)



游客,如果您要查看本帖隐藏内容请回复,如果您想无广告、免回复、免费下载附件请开通VIP:VIP传送门

评分

参与人数 1圣元 +1 收起 理由
icestorm + 1 楼主一出手,就知有没有

查看全部评分

最新回复

该用户从未签到

发表于 2010-8-28 14:40:42 | 显示全部楼层
沙发 三部曲收集完毕  支持

该用户从未签到

发表于 2010-8-28 14:46:07 | 显示全部楼层
就等第一集了

签到天数: 3 天

 成长值: 14215

发表于 2010-8-28 14:47:04 | 显示全部楼层
又有新片了,感谢分享。

该用户从未签到

发表于 2010-8-28 14:48:48 | 显示全部楼层
这下好了,第3部出来了,1-3出齐了,你辛苦了~

该用户从未签到

发表于 2010-8-28 14:57:29 | 显示全部楼层
继续收藏经典

该用户从未签到

发表于 2010-8-28 15:09:05 | 显示全部楼层
很不错的片子,值得收藏

该用户从未签到

发表于 2010-8-28 15:22:57 | 显示全部楼层
这是一个好片子呀

签到天数: 1 天

发表于 2010-8-28 15:25:13 | 显示全部楼层
经典,当然要下

该用户从未签到

发表于 2010-8-28 15:26:26 | 显示全部楼层
谢谢楼主发片

该用户从未签到

发表于 2010-8-28 15:29:44 | 显示全部楼层
支持,感谢分享...

该用户从未签到

发表于 2010-8-28 15:54:27 | 显示全部楼层
希望能有1080P。

该用户从未签到

发表于 2010-8-28 16:20:05 | 显示全部楼层
感谢圣城,辛苦了

签到天数: 2 天

发表于 2010-8-28 16:32:55 | 显示全部楼层
收下,好片,收下。不知什么时候出四。哈。

签到天数: 2 天

发表于 2010-8-28 16:33:13 | 显示全部楼层
收下,好片,收下。不知什么时候出四。哈。

24小时最新

Top10精品合集

原创推荐

赞助广告

您需要登录后才可以回帖 登录 | 立即注册

使用帮助|捐助家园|开通VIP|知识产权|Archiver| 圣城家园电影下载

©Hdscg.com 圣城家园|不良信息举报: [email protected]

快速回复 返回顶部 返回列表