圣城家园 - BT下载 720P 1080P高清电影下载|字幕组|中英字幕|电视剧|美剧|迅雷下载|高清电影|日剧|韩剧|动漫|游戏|最新电影大片下载

发布新帖
乐于分享,把你的资源分享给全世界!
查看: 25358|回复: 1358

[科幻] [生化危机2(国英)]Apocalypse.2004.BluRay.720p.DTS.x264-SCGHD[中英字幕/4.37G]

    [复制链接]

该用户从未签到

发表于 2010-8-26 20:02:32 | 显示全部楼层 |阅读模式
此片极为不耗费码率,阿甘正传都比他费码率的多。什么片取什么码率我们还是清楚的,一味乱开码率提升效果没有任何意思

生2.jpg

◎译  名 生化危机2:启示录
◎片  名 Resident Evil Apocalypse
◎年  代 2004
◎国  家 美国
◎类  别 动作/恐怖/科幻
◎语  言 英语
◎字  幕 简体中文
◎IMDB评分  5.7/10 (30,873 votes)
◎IMDB链接  http://www.imdb.com/title/tt0318627/
◎导  演 亚历山大·威特 Alexander Witt
◎主  演 米拉·乔沃维奇 Milla Jovovich  
      希艾娜·盖尔利 Sienna Guillory
      奥德·菲尔 Oded Fehr
      埃德·哈里斯 Jared Harris
      索菲·瓦瓦苏 Sophie Vavasseur
◎简  介 
     故事以《生化危机1》的最后一组场景作为开始:艾丽丝(米拉·乔沃维奇饰)被强制休眠了很久,终于悠悠转醒,却发现自己最担心的事已然变成现实--嗜杀成性的活死人僵尸遍布Raccoon城。很快,艾丽丝意识到,在“保护伞”化学公司的秘密研究基地“沉睡”的这段时间里,她在无意识的情况下成为了科学家研究生物遗传学的实验品,这赋予她全新的力量和灵敏性,正是这些艾丽丝不甚熟悉的新技能保全了她的性命。
     除了艾丽丝,还有那么一小撮人未受病菌感染,领导他们的是吉尔(希艾娜·盖尔利饰)和卡洛斯(奥德·菲尔饰),两人都曾是“保护伞”公司特警队伍中的精英份子,可是现在,他们连自身都难保,眼看着围困自己的活死人越集越多……艾丽丝适时地伸出缓手,三人终于逃离了“保护伞”公司,然而,Raccoon城的每一个角落仍然暗含着无法预知的危险。
     艾丽丝从吉尔和卡洛斯口中知晓,三人惟一存活的契机在查尔斯博士(埃德·哈里斯饰)身上--他是“保护伞”公司主要的科学家之一。查尔斯博士答应可以帮助艾丽丝和其他幸存者逃离这个正在死去的城市,但前提是:找到他走散的小女儿安吉(索菲·瓦瓦苏饰),这个小女孩和父亲分开之后,因为恐惧而躲藏在城市的某处。艾丽斯、吉尔和卡洛斯不得不再次面对可怖的活死人,找到安吉后方能一起寻求生的希望。


D:\生化危机2(国英) 720P£圣城打佛\生化危机2(国英) 720P-SCG.mkv
   General
      Complete name : D:\生化危机2(国英) 720P£圣城打佛\生化危机2(国英) 720P-SCG.mkv
      Format : Matroska
      File size : 4.37 GiB
      Duration : 1h 33mn
      Overall bit rate : 6 664 Kbps
      Encoded date : UTC 2010-08-16 00:51:39
      Writing application : mkvmerge v2.9.8 ('C'est le bon') built on Aug 13 2009 12:49:06
      Writing library : libebml v0.7.7 + libmatroska v0.8.1
   Video #1
      ID : 1
      Format : AVC
      Format/Info : Advanced Video Codec
      Format profile : [email protected]
      Format settings, CABAC : Yes
      Format settings, ReFrames : 7 frames
      Muxing mode : Container [email protected]
      Codec ID : V_MPEG4/ISO/AVC
      Duration : 1h 33mn
      Bit rate : 4 637 Kbps
      Nominal bit rate : 4 777 Kbps
      Width : 1 280 pixels
      Height : 534 pixels
      Display aspect ratio : 2.35:1
      Frame rate : 23.976 fps
      Resolution : 8 bits
      Colorimetry : 4:2:0
      Scan type : Progressive
      Bits/(Pixel*Frame) : 0.283
      Stream size : 3.04 GiB (70%)
      Writing library : x264 core 98 r1649 c54c47d
      Encoding settings : cabac=1 / ref=8 / deblock=1:-3:-2 / analyse=0x3:0x113 / me=umh / subme=10 / psy=1 / psy_rd=1.00:0.10 / mixed_ref=1 / me_range=32 / chroma_me=1 / trellis=2 / 8x8dct=1 / cqm=0 / deadzone=21,11 / fast_pskip=0 / chroma_qp_offset=-2 / threads=6 / sliced_threads=0 / nr=0 / decimate=0 / interlaced=0 / constrained_intra=0 / bframes=3 / b_pyramid=1 / b_adapt=2 / b_bias=0 / direct=1 / weightb=1 / weightp=2 / keyint=250 / keyint_min=25 / scenecut=40 / intra_refresh=0 / rc_lookahead=40 / rc=2pass / mbtree=1 / bitrate=4777 / ratetol=1.0 / qcomp=0.60 / qpmin=10 / qpmax=51 / qpstep=4 / cplxblur=20.0 / qblur=0.5 / ip_ratio=1.40 / aq=1:1.00
      Language : English
   Audio #2
      ID : 2
      Format : DTS
      Format/Info : Digital Theater Systems
      Codec ID : A_DTS
      Duration : 1h 33mn
      Bit rate mode : Constant
      Bit rate : 1 510 Kbps
      Channel(s) : 6 channels
      Channel positions : Front: L C R, Surround: L R, LFE
      Sampling rate : 48.0 KHz
      Resolution : 24 bits
      Stream size : 1 013 MiB (23%)
      Title : 英语
      Language : English
   Audio #3
      ID : 3
      Format : AC-3
      Format/Info : Audio Coding 3
      Codec ID : A_AC3
      Duration : 1h 33mn
      Bit rate mode : Constant
      Bit rate : 384 Kbps
      Channel(s) : 6 channels
      Channel positions : Front: L C R, Surround: L R, LFE
      Sampling rate : 48.0 KHz
      Stream size : 258 MiB (6%)
      Title : 国语
      Language : Chinese



游客,如果您要查看本帖隐藏内容请回复,如果您想无广告、免回复、免费下载附件请开通VIP:VIP传送门

最新回复

该用户从未签到

发表于 2010-8-26 20:05:18 | 显示全部楼层
不好意思,今天我才是沙发!哈哈哈,支持生化系列!

签到天数: 7 天

发表于 2010-8-26 20:21:19 | 显示全部楼层
生化2之前看过
经典之作啊
收藏了谢了

该用户从未签到

发表于 2010-8-26 20:27:42 | 显示全部楼层
是不是未删减版啊,教堂那段少的最多

签到天数: 1397 天

 成长值: 17020

发表于 2010-8-26 20:31:38 | 显示全部楼层
如约而至,坐个板凳也好啊

签到天数: 64 天

发表于 2010-8-26 20:33:09 | 显示全部楼层
顶~~~谢谢分享~~~话说这部相较其他的小好多~~~~~

该用户从未签到

发表于 2010-8-26 20:36:46 | 显示全部楼层
应该不是圆盘压制的吧,感觉体积小了点...

该用户从未签到

发表于 2010-8-26 20:43:57 | 显示全部楼层
这个有点小。不过也不错

该用户从未签到

发表于 2010-8-26 20:54:45 | 显示全部楼层
居然才5分多。。。。 真是悲剧。。。当初看,也没觉得难看。。。不知道老外是什么样的审美观

该用户从未签到

发表于 2010-8-26 20:55:21 | 显示全部楼层
前排。感谢版主分享

该用户从未签到

发表于 2010-8-26 21:04:33 | 显示全部楼层
支持一下,生化系列

签到天数: 1336 天

发表于 2010-8-26 21:05:40 | 显示全部楼层
不错的续集 值得收藏

该用户从未签到

发表于 2010-8-26 21:13:42 | 显示全部楼层
生化危机系列还是很不错的~

该用户从未签到

发表于 2010-8-26 21:16:57 | 显示全部楼层
觉得还是不错的这部电影
感谢LZ分享

签到天数: 5 天

发表于 2010-8-26 21:20:03 | 显示全部楼层
哈哈 我喜欢这个系列 谢谢分享

24小时最新

Top10精品合集

原创推荐

赞助广告

您需要登录后才可以回帖 登录 | 立即注册

使用帮助|捐助家园|开通VIP|知识产权|Archiver| 圣城家园电影下载

©Hdscg.com 圣城家园|不良信息举报: [email protected]

快速回复 返回顶部 返回列表