圣城家园 - BT下载 720P 1080P高清电影下载|字幕组|中英字幕|电视剧|美剧|迅雷下载|高清电影|日剧|韩剧|动漫|游戏|最新电影大片下载

发布新帖
乐于分享,把你的资源分享给全世界!
查看: 24473|回复: 1060

[惊悚] [鹰眼]Eagle.Eye.2008.BluRay.720p.DTS.x264-SCGHD[中英字幕/6.56G]

    [复制链接]

该用户从未签到

发表于 2010-8-25 11:13:45 | 显示全部楼层 |阅读模式
鹰眼.jpg

◎译  名 鹰眼
◎片  名 Eagle Eye
◎年  代 2008
◎国  家 美国
◎类  别 惊悚/剧情
◎语  言 英语
◎字  幕 N/A
◎IMDB评分 6.8/10 13,733 votes
◎IMDB链接 http://www.imdb.com/title/tt1059786
◎片  长 117min
◎导  演 卡卢索 D.J. Caruso
◎主  演 Shia LaBeouf 希亚·拉博夫 Shia LaBeouf
      Michelle Monaghan 米歇尔·莫娜汉 Michelle Monaghan
      Billy Bob Thornton 比利·鲍伯·松顿 Billy Bob Thornton
      Rosario Dawson 罗莎里奥·道森 Rosario Dawson
      Ethan Embry 伊桑·恩布里 Ethan Embry
      Michael Chiklis 麦克·切克里斯 Michael Chiklis
      Madylin Sweeten ....Becky
      Anthony Mackie 安东尼·麦凯 Anthony Mackie
      Michael Maize ....Master Sergeant
      Anthony Azizi ....Turan
      Gary Houston ....Forensics Tech #2
      Cameron Boyce ....Sam
      Fahim Fazli ....Al Kohei
      Jor'don Hodges ....Train Passenger
      Ali Olomi ....Fighter
      Peggy Roeder ....Forensics Tech #1
      Tony Flores ....Swat Team Leader
      Sean Kinney ....JTAC Team leader
      Steve Barrons ....JTAC Team Member
      Eric Christian Olsen 艾瑞克·克里斯蒂安·奥森 Eric Christian Olsen
      Lynn Cohen
      Stacey Scowley ....Bartender
      Angelina Lyubomirova ....ATM Client
      Madison Mason ....The President
      Tommy Bartlett ....Train Commuter
      Jay Disney ....Mercedes Owner
      Jarod Einsohn ....Tech #1
      Manny Perry ....Brinks Courier
      James Huang ....Army Intel Officer #2

◎简  介 



故事主人公的孪生兄弟突然不明不白的死掉了,当他赶回家料理后事的时候,发现自己和一个单身母亲竟然都被诬陷为恐怖分子,两人就此被迫卷入了一场政治暗杀的阴谋之中,唯一的出路就是两人共同合作来解救自己……



幕后制作

  “试映”会让影片失去神秘感

  导演卡卢索在拍摄《鹰眼》之初,就非常明确地表达了自己的一个观点,那就是这部影片拍摄完毕之后,坚决绕开“试映”这一常规步骤,而他所采取的策略,就是将《鹰眼》的后期制作完成的时间尽量拖后,不给“试映”留下任何回旋的余地,卡卢索说:“这种做法可能不太地道,却非常好用,反正我个人觉得,如果我们用光了所有的时间,完全不留下任何空隙,‘试映’也只能就此被取消了……说实话,我很高兴我们最终成功了。”制片人艾里克斯·库兹曼则认为:“《鹰眼》是一部规模非常大的动作惊悚片,为了让其产生更具震撼力的效果,作为制片人的你最好用安抚去替代急躁,因为你最终会发现,像这种即使在前期做好了大量准备工作的作品,拍摄的时候由于有太多的东西需要协调,所以导演的某些拖延行为,还是有他一定的道理在的,完全在可理解的范围内。不过让我没想到的是,卡卢索竟然是为了避开‘试映会’而故意延长了影片的后期制作,确实被他耍的小计谋给骗了。”

  《鹰眼》的片长初步被设定在了152分钟,这也许并不是一个非常确定的数字,但卡卢索也承诺,在这个基础上,不会出现太大的上下浮动,他继续说:“在好莱坞,两个半小时的时间确实有点过长,尤其是对一部动作片来说……当然,影片里仍然存在着需要斟酌和打磨的地方,这种情况在前两卷胶片中尤其明显,还有很多选择可供参考,所以,我只能说一切都还是一个未知数。”

  另外,卡卢索还表明,《鹰眼》确实在很大程度受到了自己之前做过导演的电视剧《盾牌》的影响,他说:“虽然我们并没有直接聘用《盾牌》相关的幕后工作人员,但《鹰眼》在风格上与这部电视剧还是颇有渊源的,不过,《谍影重重》系列也给了我相当大的冲击和感触……说到这里也许有人要说了,‘它们是三部非常伟大的动作电影。’但我的回答却是,‘我们差不多6年前就在《盾牌》中做过相似的尝试了。’我确实倾向于用便携摄像机去拍摄《鹰眼》的某些场景,因为我一直认为,现在的好莱坞进入了一个怪圈当中,便携摄像机的使用频率的确有点过高了,基于这个原因,我希望通过一种‘伪纪录片’的形式正确地记录下我们想要讲述的一切,但绝对不是疯狂地滥用过度。不管你相不相信,这还是我导演事业中第一次使用斯坦尼康--即摄影机稳定器,我发现这是一个非常不错的拍摄装置,我很喜欢它,因为斯坦尼康不仅能够让画面维持住便携摄像机所制造出的那种特有的感觉,同时还帮助你消除了这种拍摄方式的一些不确定因素。”

  这一次,卡卢索做出了正确的选择,因为拍摄一部影片时,适当地使用便携摄像机真的能够带给观众一种真实纪录的现场感,再加上卡卢索还结合了实拍和 CGI特效,令所有的汽车追逐场景都产生了一种让人心脏抽动的风驰电掣,他表示:“这类电影似乎已经没办法避免数码特效的辅助功能了,不过我们一直在尽自己最大的努力,能实拍的部分一定不会去依靠CGI。比如说《鹰眼》中那些被碾碎了的汽车,就全部都是真实拍摄出来的,惟一使到特效技术的部分,就是用 CGI来消除缆绳的痕迹,因为我们需要借用缆绳加大动力,让汽车与汽车以最猛烈的方式撞到一起。所以说,影片中的那些逼真的汽车追逐场景,并不是特效制作出来的成果,尤其是那种需要借助起重支架才能拍摄出来的一些大场面,你不用CGI进行道具的抹除,几乎是没办法完成的。你必须要给《鹰眼》制定一个非常高的起点,因为它毕竟和《变形金刚》这样的作品是完全不一样的,不能使用太多奇幻到不真实的元素去惊掉观众的下巴,一旦明确了自己的目标,你就不会觉得数码特效是一个不可或缺的电影技术了。”艾里克斯·库兹曼则稍微进行了一下补充:“《变形金刚》对焦在了一个过度被关注的世界里,有一部分是真实的,但也结合了卡通的虚幻。而《鹰眼》的故事所存在的环境却有着非常本质的区别,这使得我们做出了相应的变动和选择,只为一个目的,那就是维持住这部影片的真实感,你可以称之为‘极光录影’,或者其他任何你能想象到的专业形容词……不过拍摄之初,我们真的没有考虑过那么多,就是想制作一部真正能够得到观众喜爱的动作电影而已。”

  用潜移默化来制造惊悚 

  对于导演卡卢索来说,《鹰眼》更像是一部现代版本的《法国贩毒网》,他说:“当我和艾里克斯·库兹曼第一次见面并开始讨论这部影片的时候,就产生过类似的感觉,尤其是从电影技术的角度出发,你会发现两部影片真的存在着很多相似的地方。我和库兹曼从一开始就达成了一个共识,尽量维持住画面和故事的真实性,包括它的自然主义风格,我希望当影片接近尾声的时候,观众将会切身感受到我们的主角正在面对的危机和恐惧。”

  关于影片中可能会起到决定作用的关键情节,卡卢索坚守住了电影人一贯使用的“保密”原则,给人留下了一个非比寻常的悬念,他表示:“这已经成为电影工业中的‘人之常情’了,而且我们的制片人可是斯蒂文·斯皮尔伯格--好莱坞里最喜欢玩神秘、不到最后一刻绝不揭晓答案的电影人之一,在他的影响下,再加上我的一点点坚持,《鹰眼》一定可以用一种非常特别的方式维持住它的新鲜度。也许这部影片并不具备那种让人恍然大悟的突发性惊人时刻,但是它的故事发展的方式却是潜移默化的,一点一点地渗透进了脑髓,最终的答案可能并不是你想要的,却也让你感到除此之外别无选择。鉴于《鹰眼》中所占比重非常大的惊悚部分,我当然希望观众能够将所有的心思都放在影片上,一直到最后结局的时候仍然在费解,搞不清楚到底发生了什么事情……我制作的第一部影片《万里追凶》就具备了这种调调——最初的时候,里面发生的一切让你备感迷茫,可是对于我来说,这样的悬疑气氛,正是一个非传统故事应该具备的能量之一。不过,《鹰眼》可能要比你想象的更加注重情节的对搭,在角色与故事的选择上,身为导演的我经常纠结于其中,孰轻孰重总是要掂量许久,当你真正看到影片的时候,就会知道这些矛盾的部分是多么地蓄势待发了。”制片人艾里克斯·库兹曼则认为:“单分析这一点还是非常有意思的,比如说如果你是一位编剧,你肯定会说,角色就是剧情本身的一个组成部分,你不得不让它们紧密地结合在一起,或者让它们各自在所属的领域中起到一定的作用,让观众看到其中的一个,就能感觉得到另一个。然而这只是文字方面的需要,将这样的情感用画面表达出来,可就不是那么轻松了。”另一位制片人罗伯托·奥利奇也发表了一些自己的看法:“卡卢索当然希望观众能够主观地进入影片中主角所处的环境,所以这种时候,肯定是他们知道的越少,越有可能感同身受。”

  卡卢索还认为,《鹰眼》在这方面的设定,与许多电脑游戏所采用的是相似的概念:“回想一下你心目中的那些最伟大的电脑游戏,它们吸引人的地方,就在于能够让你身陷于未知的世界,处在不知道下一秒钟会发生什么事情的紧迫环境当中……《鹰眼》的前半部分,就好像是一部游戏最开始的两个关卡,你不但可以轻松过关,还将一切都控制在了自己的掌握之中。但随着故事的发展,你会发现之前的一切都被推翻了,没了选择的依据,你不得不走出最初的优势,重新在困难中拼搏出一条出路——不管是游戏还是电影,这都是它们真正的趣味所在。”艾里克斯·库兹曼接着说:“从这个观点出发,我觉得这部影片还从阿尔弗雷德·希区柯克的作品中借鉴了许多不二的法宝,整个观影的过程就好像是在玩一个猜谜游戏:最后的结局究竟是什么呢?这些卷入到其中的人到底扮演了一个什么样的身份?而讲述这样的故事最好的方式,就是从旁观者的视角出发,然后去想象主角有可能经历的一切。”如此说来,《鹰眼》的关键点并不在于“谁”,而是在于“为什么”, 当你最终发现那个“谁”的真正身份时,也就是谜底揭晓的时候了,你将会意识到影片讲述了一个多么充满诱惑力的故事。




D:\鹰眼720P-SCG.mkv
   General
      Complete name : D:\鹰眼720P-SCG.mkv
      Format : Matroska
      File size : 6.55 GiB
      Duration : 1h 57mn
      Overall bit rate : 7 976 Kbps
      Encoded date : UTC 2010-08-24 06:13:32
      Writing application : mkvmerge v3.0.0 ('Hang up your Hang-Ups') 编译于 Dec 12 2009 15:20:35
      Writing library : libebml v0.7.9 + libmatroska v0.8.1
   Video #1
      ID : 1
      Format : AVC
      Format/Info : Advanced Video Codec
      Format profile : [email protected]
      Format settings, CABAC : Yes
      Format settings, ReFrames : 7 frames
      Muxing mode : Container [email protected]
      Codec ID : V_MPEG4/ISO/AVC
      Duration : 1h 57mn
      Bit rate : 6 308 Kbps
      Nominal bit rate : 6 476 Kbps
      Width : 1 280 pixels
      Height : 534 pixels
      Display aspect ratio : 2.35:1
      Frame rate : 23.976 fps
      Resolution : 8 bits
      Colorimetry : 4:2:0
      Scan type : Progressive
      Bits/(Pixel*Frame) : 0.385
      Stream size : 5.18 GiB (79%)
      Writing library : x264 core 98 r1649 c54c47d
      Encoding settings : cabac=1 / ref=8 / deblock=1:-3:-2 / analyse=0x3:0x113 / me=umh / subme=10 / psy=1 / psy_rd=1.00:0.10 / mixed_ref=1 / me_range=32 / chroma_me=1 / trellis=2 / 8x8dct=1 / cqm=0 / deadzone=21,11 / fast_pskip=0 / chroma_qp_offset=-2 / threads=6 / sliced_threads=0 / nr=0 / decimate=0 / interlaced=0 / constrained_intra=0 / bframes=3 / b_pyramid=1 / b_adapt=2 / b_bias=0 / direct=1 / weightb=1 / weightp=2 / keyint=250 / keyint_min=25 / scenecut=40 / intra_refresh=0 / rc_lookahead=40 / rc=2pass / mbtree=1 / bitrate=6476 / ratetol=1.0 / qcomp=0.60 / qpmin=10 / qpmax=51 / qpstep=4 / cplxblur=20.0 / qblur=0.5 / ip_ratio=1.40 / aq=1:1.00
      Language : English
   Audio #2
      ID : 2
      Format : DTS
      Format/Info : Digital Theater Systems
      Codec ID : A_DTS
      Duration : 1h 57mn
      Bit rate mode : Constant
      Bit rate : 1 510 Kbps
      Channel(s) : 6 channels
      Channel positions : Front: L C R, Surround: L R, LFE
      Sampling rate : 48.0 KHz
      Resolution : 24 bits
      Stream size : 1.24 GiB (19%)





游客,如果您要查看本帖隐藏内容请回复,如果您想无广告、免回复、免费下载附件请开通VIP:VIP传送门

最新回复

该用户从未签到

发表于 2010-8-25 11:21:12 | 显示全部楼层
好看吗,还没看过

该用户从未签到

发表于 2010-8-25 11:24:17 | 显示全部楼层
剧情虽然老套,不过观赏性还是不错的..

签到天数: 7 天

发表于 2010-8-25 11:25:42 | 显示全部楼层
之前看过的,很好看的动作片
收藏了,谢了支持圣城

该用户从未签到

发表于 2010-8-25 11:39:05 | 显示全部楼层
这片子很一般啊

签到天数: 11 天

发表于 2010-8-25 11:44:59 | 显示全部楼层
搶佔沙發。。呵呵
感謝分享~!

该用户从未签到

发表于 2010-8-25 11:46:10 | 显示全部楼层
呵呵,以前没看过,现在出了高码率版本,那就下来欣赏一下!

签到天数: 15 天

发表于 2010-8-25 11:49:57 | 显示全部楼层
看介绍似乎不错啊~ 感谢发布

签到天数: 4 天

发表于 2010-8-25 11:56:22 | 显示全部楼层
好电影啊,一定要收藏

该用户从未签到

发表于 2010-8-25 11:59:18 | 显示全部楼层
只能算是一般的片子
无论是剧情还是任务设定
唯一的亮点就是男主角的演技了

签到天数: 4 天

发表于 2010-8-25 12:03:52 | 显示全部楼层
节奏很紧张的电影,好啊

签到天数: 608 天

发表于 2010-8-25 12:12:01 | 显示全部楼层
还不错的片子,现在收藏,谢谢楼主发布。

签到天数: 1 天

发表于 2010-8-25 12:23:07 | 显示全部楼层
看过,不错的电影。

签到天数: 1 天

发表于 2010-8-25 12:38:30 | 显示全部楼层
谢谢分享......

签到天数: 41 天

发表于 2010-8-25 12:42:44 | 显示全部楼层
片子不错,最近高码片也不断啊,支持一个

24小时最新

Top10精品合集

原创推荐

赞助广告

您需要登录后才可以回帖 登录 | 立即注册

使用帮助|捐助家园|开通VIP|知识产权|Archiver| 圣城家园电影下载

©Hdscg.com 圣城家园|不良信息举报: [email protected]

快速回复 返回顶部 返回列表