圣城家园 - BT下载 720P 1080P高清电影下载|字幕组|中英字幕|电视剧|美剧|迅雷下载|高清电影|日剧|韩剧|动漫|游戏|最新电影大片下载

发布新帖
乐于分享,把你的资源分享给全世界!
查看: 25710|回复: 1631

[科幻] [生化危机1]Resident Evil.2002.BluRay.720p.DTS.x264-SCGHD[中英字幕/5.5G]

    [复制链接]

该用户从未签到

发表于 2010-7-20 12:47:51 | 显示全部楼层 |阅读模式
  1. ---[NoImage] x264 [info]: frame I:1783  Avg QP:16.16  size: 97391
  2. ---[NoImage] x264 [info]: frame P:44128 Avg QP:18.46  size: 46051
  3. ---[NoImage] x264 [info]: frame B:98687 Avg QP:19.43  size: 25801
复制代码
生1.jpg

【原 片 名】Resident Evil   
【中 文 名】生化危机
【出品年代】2002
【首映日期】2002
【MPAA级别】R 级
【IMDB链接】http://www.imdb.com/title/tt0120804/
【IMDB评分】6.2/10 (41,024 votes)
【国  家】美国
【类  别】动作 / 惊悚 / 科幻
【导  演】Paul W.S. Anderson
【主  演】米拉 乔沃维奇 (Milla Jovovich) ...... Alice
      Michelle Rodriguez ...... Rain Ocampo
      艾力克马毕斯 (Eric Mabius) ...... Matt Addison
      James Purefoy ...... Spencer Parks
      Martin Crewes ...... Chad Kaplan
      科林 萨蒙 (Colin Salmon) ...... James 'One' Shade
      Pasquale Aleardi ...... J.D. Salinas
      Heike Makatsch ...... Dr. Lisa Addison
      Michaela Dicker ...... Red Queen
      Liz May Brice ...... Medic
      Torsten Jerabek ...... Warner
      Marc Logan-Black ...... Commando #2
      Anna Bolt ...... Dr. Green
      Joseph May ...... Dr. Blue
      Robert Tannion ...... Dr. Brown

·生化危机1:变种生还剧情介绍:

一项“死亡病毒”的秘密实验是个致命的错误。《生化危机》这部影片改编自广受欢迎的PS上的电视游戏系列,是一部情节紧张的惊悚片。由主演过《第五元素》(“The Fifth Element”)的米拉-乔沃维奇(Milla Jovovich)、米歇尔-罗德里格兹(Michelle Rodriguez,曾主演过《速度与激情》“The Fast and the Furious”)和埃里克-马比乌斯(Eric Mabius,曾主演过《危险性游戏》“Cruel Intentions”)担纲主演,讲述了爆发在善良与邪恶、人类与计算机、活人与僵尸之间的较量。

剧情:
在保护伞公司(Umbrella Corporation)的老巢----“蜂巢”(Hive)的巨大地下遗传研究中心时暗藏着某种可怕的事情,在这里聚集着神秘的生物工程学家。一种致命的病毒爆发了,并快速地传播着。“红色女皇”----一台控制和监视着整个“蜂巢”的超级巨型计算机把整个中心都封闭了起来,甚至包括很小的漏洞,“杀死”了所有被困在里边的工作人员。
暂时失忆的艾丽斯(Alice,米拉-乔沃维奇饰)在自己的浴室中醒来,先后遇到了Matt(Eric Mabius)与雷恩(Rain,米歇尔-罗德里格兹饰)等人组成的特遣队。特遣队逮捕了Matt,带着他和Alice进入“蜂巢”并关闭红色女皇。然而,队员们很快发现这些工作人员们并不是真正地死去了。他们现在已成为徘徊在“蜂巢”内贪婪的象僵尸一样的活死人。人们一旦被他们咬一口或被他们抓伤就会受到感染,甚至立即变成他们一类的人。
艾丽斯和她的特遣队有3个小时来完成他们的任务,否则这些僵尸们将泛滥成灾,对整个地球构成威胁。其间,爱丽丝的记忆不断闪回,事实的真相也不断揭开。为了接近红色女皇,小队成员必须在这个象蜂巢一样的迷宫里,穿过一连串一个比一个恐怖的障碍。其中包括致命的激光、异型犬爪和一个巨大的样品屋,在这个样品屋里艾丽斯见识到了保护伞公司导致这场危机的邪恶研究成果。艾丽斯也很快发现了这些僵尸是该公司的一项最新的研究方案----变种T-病毒造成的结果。
T-病毒最初的设计方案是抗衰老、治疗神经方面的疾病,它具有激活死亡细胞的能力。艾丽斯意识到这肯定是一个神秘的破坏者偷走了这个病毒,并把它释放到“蜂巢”的空气中。这就是危机的爆发经过。谁会做这事呢?为什么要这样做?
面对这个巨型计算机,雷恩假意请红色女皇帮助他们。红色女皇同意了,但是坚持那些被感染的人一个也不允许逃走。当然,除非他们能首先找到克制这个病毒的反病毒。他们的有效办法就是利用遗传上的变种试验,也就是利用现在能摧毁所有僵尸的著名邪恶生物----"舔食者"(Licker)。"舔食者"每杀死一个人,他的力量就会增加,也使特遣队的工作更加危险。
特遣队能够及时打败红色女皇,在规定的时间内找到反病毒吗?或者,他们是否也会变成僵尸呢?如果能有人活着逃出邪恶“蜂巢”的话,会是谁?

General
      Complete name : D:\生化危机1 720P-SCG.mkv
      Format : Matroska
      File size : 5.49 GiB
      Duration : 1h 40mn
      Overall bit rate : 7 815 Kbps
      Encoded date : UTC 2010-07-17 12:23:34
      Writing application : mkvmerge v2.9.8 ('C'est le bon') built on Aug 13 2009 12:49:06
      Writing library : libebml v0.7.7 + libmatroska v0.8.1
   Video #1
      ID : 1
      Format : AVC
      Format/Info : Advanced Video Codec
      Format profile : [email protected]
      Format settings, CABAC : Yes
      Format settings, ReFrames : 7 frames
      Muxing mode : Container [email protected]
      Codec ID : V_MPEG4/ISO/AVC
      Duration : 1h 40mn
      Bit rate : 6 150 Kbps
      Nominal bit rate : 6 320 Kbps
      Width : 1 280 pixels
      Height : 694 pixels
      Display aspect ratio : 16:9
      Frame rate : 23.976 fps
      Resolution : 8 bits
      Colorimetry : 4:2:0
      Scan type : Progressive
      Bits/(Pixel*Frame) : 0.289
      Stream size : 4.31 GiB (79%)
      Writing library : x264 core 98 r1649 c54c47d
      Encoding settings : cabac=1 / ref=8 / deblock=1:-3:-2 / analyse=0x3:0x113 / me=umh / subme=10 / psy=1 / psy_rd=1.00:0.10 / mixed_ref=1 / me_range=32 / chroma_me=1 / trellis=2 / 8x8dct=1 / cqm=0 / deadzone=21,11 / fast_pskip=0 / chroma_qp_offset=-2 / threads=6 / sliced_threads=0 / nr=0 / decimate=0 / interlaced=0 / constrained_intra=0 / bframes=3 / b_pyramid=1 / b_adapt=2 / b_bias=0 / direct=1 / weightb=1 / weightp=2 / keyint=250 / keyint_min=25 / scenecut=40 / intra_refresh=0 / rc_lookahead=40 / rc=2pass / mbtree=1 / bitrate=6320 / ratetol=1.0 / qcomp=0.60 / qpmin=10 / qpmax=51 / qpstep=4 / cplxblur=20.0 / qblur=0.5 / ip_ratio=1.40 / aq=1:1.00
      Language : English
   Audio #2
      ID : 2
      Format : DTS
      Format/Info : Digital Theater Systems
      Codec ID : A_DTS
      Duration : 1h 40mn
      Bit rate mode : Constant
      Bit rate : 1 510 Kbps
      Channel(s) : 6 channels
      Channel positions : Front: L C R, Surround: L R, LFE
      Sampling rate : 48.0 KHz
      Resolution : 24 bits
      Stream size : 1.06 GiB (19%)



游客,如果您要查看本帖隐藏内容请回复,如果您想无广告、免回复、免费下载附件请开通VIP:VIP传送门

最新回复

签到天数: 152 天

[LV.7]常住居民III

发表于 2010-7-20 12:49:43 | 显示全部楼层
我是沙发吗?很喜欢这个片子,谢谢楼主分享啦。

该用户从未签到

发表于 2010-7-20 12:50:35 | 显示全部楼层
今天是毫无疑问的沙发!哈哈哈哈,第一名!版主要给分呀!!

签到天数: 11 天

[LV.3]偶尔看看II

发表于 2010-7-20 12:58:52 | 显示全部楼层
看来我也是个沙发耶

签到天数: 84 天

[LV.6]常住居民II

发表于 2010-7-20 13:04:48 | 显示全部楼层
这个高清值得收藏
还不错啊

签到天数: 15 天

[LV.4]偶尔看看III

 成长值: 13585

发表于 2010-7-20 13:20:45 | 显示全部楼层
生化系列很喜欢,值得收藏,老火辛苦啊

该用户从未签到

发表于 2010-7-20 13:44:37 | 显示全部楼层
估计会慢慢出全的,不错的系列

该用户从未签到

发表于 2010-7-20 13:47:02 | 显示全部楼层
1# 火拳艾斯


谢谢

该用户从未签到

发表于 2010-7-20 13:47:35 | 显示全部楼层
好东西.要感谢

该用户从未签到

发表于 2010-7-20 13:51:34 | 显示全部楼层
感谢火拳,收下。

该用户从未签到

发表于 2010-7-20 13:53:18 | 显示全部楼层
希望后面的快点出来,感谢分享~~

签到天数: 26 天

[LV.4]偶尔看看III

 成长值: 12985

发表于 2010-7-20 13:55:35 | 显示全部楼层
高清的,支持,在家变成小水管了,不下了。

签到天数: 1 天

[LV.1]初来乍到

发表于 2010-7-20 14:33:28 | 显示全部楼层
支持高码率MKV 又要洗版了 火拳换头像了 什么时候喜欢钢铁侠了

签到天数: 1 天

[LV.1]初来乍到

发表于 2010-7-20 14:35:04 | 显示全部楼层
太爽了,高码区又更新了,高码区的电影是一定要收藏的,感谢感谢,老大们辛苦了哈

该用户从未签到

发表于 2010-7-20 14:41:25 | 显示全部楼层
期待2 3

谢谢楼主共享

24小时最新

Top10精品合集

原创推荐

赞助广告

您需要登录后才可以回帖 登录 | 立即注册

使用帮助|捐助圣城|开通VIP|知识产权|Archiver| 圣城家园电影下载

©Hdscg.com 圣城家园|不良信息举报: [email protected]

IDC服务器合作邀请,联系QQ:1035284570

快速回复 返回顶部 返回列表