圣城家园 - BT下载 720P 1080P高清电影下载|字幕组|中英字幕|电视剧|美剧|迅雷下载|高清电影|日剧|韩剧|动漫|游戏|最新电影大片下载

发布新帖
乐于分享,把你的资源分享给全世界!
查看: 32521|回复: 2200

[剧情] [艳舞女郎].Showgirls.1995 .720p.BluRay.x264.AC3-SCG[中英字幕/2.6G]

    [复制链接]

该用户从未签到

发表于 2010-6-10 20:08:29 | 显示全部楼层 |阅读模式
艳舞女郎.jpg

◎中文 名 艳舞女郎/美国舞娘
◎片  名 Showgirls
◎年  代 1995
◎国  家 法国
◎类  别 剧情
◎语  言 英语
◎字  幕 中文
◎IMDB评分 4.0/10(16870votes)
◎IMDB链接 http://www.imdb.com/title/tt0114436
◎片  长 131 Min
◎导  演 保罗?范霍文
◎主  演 伊丽莎白?伯克利 Elizabeth Berkley  .....Nomi Malone
      吉娜?吉舍恩 Gina Gershon  .....Cristal Connors
      凯尔?麦克拉克伦 Kyle MacLachlan  .....Zack Carey
      格伦?普拉默 Glenn Plummer  .....James Smith
      Robert Davi  .....Al Torres
      Alan Rachins  .....Tony Moss
      Gina Ravera  .....Molly Abrams
      Lin Tucci  .....Henrietta 'Mama' Bazoom
      Greg Travis  .....Phil Newkirk
      Al Ruscio  .....Mr. Karlman
      Patrick Bristow  .....Marty Jacobsen
      William Shockley  .....Andrew Carver
      Michelle Johnston  .....Gay Carpenter
      Dewey Weber  .....Jeff
      Rena Riffel  .....Penny/Hope
      Melissa Williams  .....Julie
      Ungela Brockman  .....Annie
      Melinda Songer  .....Nicky
      Lance Davis  .....Bell Captain
      Jack McGee  .....Jack, Stagehand

◎简  介 
年轻的艳舞女郎诺密来到拉斯维加斯寻找发展机会,刚一下车就被骗走全部行李,还好遇到好心的艳舞团化妆师,两个人开始了深厚的友谊。野心勃勃的诺密一心想在艳舞界闯出名堂,但强烈的自卑发展为极度敏感的自尊,再加上道德观念的含混,使得诺密一方面想逃避“男人玩物”的身份,一方面又不择手段甚至不自觉地出卖肉体以获得成功。当她如愿以偿地取代了原来的艳舞巨星克里斯蒂后,才发现艳舞女郎的真正社会身份只能是“男人玩物”, ...

E:\压制MKV专用文件夹\艳舞女郎£圣城打佛\bbs.cnscg.com 艳舞女郎.mkv
   General
      Complete name : E:\压制MKV专用文件夹\艳舞女郎£圣城打佛\bbs.cnscg.com 艳舞女郎.mkv
      Format : Matroska
      File size : 2.60 GiB
      Duration : 2h 11mn
      Overall bit rate : 2 830 Kbps
      Encoded date : UTC 2010-06-09 11:41:56
      Writing application : mkvmerge v3.0.0 ('Hang up your Hang-Ups') 编译于 Dec 12 2009 15:20:35
      Writing library : libebml v0.7.9 + libmatroska v0.8.1
   Video #1
      ID : 1
      Format : AVC
      Format/Info : Advanced Video Codec
      Format profile : High@L4.1
      Format settings, CABAC : Yes
      Format settings, ReFrames : 4 frames
      Muxing mode : Container profile=Unknown@4.1
      Codec ID : V_MPEG4/ISO/AVC
      Duration : 2h 11mn
      Bit rate : 2 326 Kbps
      Nominal bit rate : 2 381 Kbps
      Width : 1 280 pixels
      Height : 720 pixels
      Display aspect ratio : 16:9
      Frame rate : 23.976 fps
      Resolution : 8 bits
      Colorimetry : 4:2:0
      Scan type : Progressive
      Bits/(Pixel*Frame) : 0.105
      Stream size : 2.13 GiB (82%)
      Writing library : x264 core 80 r1376M 3feaec2
      Encoding settings : cabac=1 / ref=5 / deblock=1:-3:-3 / analyse=0x3:0x113 / me=umh / subme=9 / psy=1 / psy_rd=1.0:0.0 / mixed_ref=1 / me_range=32 / chroma_me=1 / trellis=2 / 8x8dct=1 / cqm=0 / deadzone=21,11 / fast_pskip=1 / chroma_qp_offset=-2 / threads=6 / sliced_threads=0 / nr=0 / decimate=1 / mbaff=0 / constrained_intra=0 / bframes=3 / b_pyramid=1 / b_adapt=2 / b_bias=0 / direct=1 / wpredb=1 / wpredp=2 / keyint=250 / keyint_min=25 / scenecut=40 / rc_lookahead=40 / rc=2pass / mbtree=1 / bitrate=2381 / ratetol=1.0 / qcomp=0.60 / qpmin=10 / qpmax=51 / qpstep=4 / cplxblur=20.0 / qblur=0.5 / ip_ratio=1.40 / aq=1:1.00
      Language : English
   Audio #2
      ID : 2
      Format : AC-3
      Format/Info : Audio Coding 3
      Codec ID : A_AC3
      Duration : 2h 11mn
      Bit rate mode : Constant
      Bit rate : 448 Kbps
      Channel(s) : 6 channels
      Channel positions : Front: L C R, Surround: L R, LFE
      Sampling rate : 48.0 KHz
      Stream size : 421 MiB (16%)
   Text #3
      ID : 3
      Format : SSA
      Codec ID : S_TEXT/SSA
      Codec ID/Info : Sub Station Alpha
      Title : 上中下英
   Text #4
      ID : 4
      Format : SSA
      Codec ID : S_TEXT/SSA
      Codec ID/Info : Sub Station Alpha
      Title : 上英下中
   Text #5
      ID : 5
      Format : UTF-8
      Codec ID : S_TEXT/UTF8
      Codec ID/Info : UTF-8 Plain Text
      Title : 中文
   Text #6
      ID : 6
      Format : UTF-8
      Codec ID : S_TEXT/UTF8
      Codec ID/Info : UTF-8 Plain Text
      Title : 英文




游客,如果您要查看本帖隐藏内容请回复,如果您想无广告、免回复、免费下载附件请开通VIP:VIP传送门

评分

参与人数 1圣元 +100 收起 理由
猫猫城 + 100 没有理由,就是喜欢

查看全部评分

最新回复

该用户从未签到

发表于 2010-6-10 20:13:19 | 显示全部楼层
占楼啊,保罗继本能后的片子,充满本能的味道

该用户从未签到

发表于 2010-6-10 20:14:35 | 显示全部楼层
抢占沙发~楼主发片辛苦

签到天数: 2 天

发表于 2010-6-10 20:19:39 | 显示全部楼层
物欲横流的一部电影吧

该用户从未签到

发表于 2010-6-10 20:26:22 | 显示全部楼层
多谢分享好片子啊!

该用户从未签到

发表于 2010-6-10 20:26:30 | 显示全部楼层
支持你,感谢分享!

该用户从未签到

发表于 2010-6-10 20:27:08 | 显示全部楼层
以前看过,挺养眼的,谢谢

签到天数: 1 天

发表于 2010-6-10 20:27:42 | 显示全部楼层
谢谢分享 !!

签到天数: 18 天

发表于 2010-6-10 20:27:56 | 显示全部楼层
谢谢楼主

该用户从未签到

发表于 2010-6-10 20:28:18 | 显示全部楼层
谢谢您的分享,这个片子比较经典,呵呵

签到天数: 1621 天

发表于 2010-6-10 20:31:26 | 显示全部楼层
分数倒是很惨

该用户从未签到

发表于 2010-6-10 20:35:38 | 显示全部楼层
十分经典~~~

该用户从未签到

发表于 2010-6-10 20:36:05 | 显示全部楼层
还不错的一部片子,评分也太低了!

签到天数: 326 天

发表于 2010-6-10 20:38:54 | 显示全部楼层
感谢分享经典好片********___+++

签到天数: 4 天

发表于 2010-6-10 20:39:01 | 显示全部楼层
以前看过,舞蹈倒是不错,谢谢

24小时最新

Top10精品合集

原创推荐

赞助广告

您需要登录后才可以回帖 登录 | 立即注册

使用帮助|捐助家园|开通VIP|知识产权|Archiver| 圣城家园电影下载

©Hdscg.com 圣城家园|不良信息举报: hdscgcom@gmail.com

快速回复 返回顶部 返回列表